<?xml version="1.0" standalone="no"?>
<!DOCTYPE svg PUBLIC "-//W3C//DTD SVG 1.1//EN" "http://www.w3.org/Graphics/SVG/1.1/DTD/svg11.dtd" >
<svg xmlns="http://www.w3.org/2000/svg">
<metadata>Generated by IcoMoon</metadata>
<defs>
<font id="piconsthin" horiz-adv-x="1024">
<font-face units-per-em="1024" ascent="960" descent="-64" />
<missing-glyph horiz-adv-x="1024" />
<glyph unicode="&#x20;" horiz-adv-x="512" d="" />
<glyph unicode="&#xe900;" glyph-name="thin-0001_compose_write_pencil_new" d="M1011.755 789.589l-2.773 4.992c-0.981 2.048-2.389 3.968-4.011 5.589l-140.843 140.843c-9.003 8.917-23.296 14.72-36.395 14.72-11.989 0-20.096-4.651-25.941-8.064l-4.949-2.731c-2.048-1.024-3.883-2.389-5.504-3.968l-520.533-520.533c-6.016-6.016-12.587-17.664-86.485-199.979-10.667-26.24-18.475-45.568-19.968-48.853-8.747-17.579-1.067-38.229 4.309-48.896 1.024-2.048 2.389-3.925 4.011-5.547 8.747-8.747 20.821-13.355 33.024-13.355 7.211 0 14.507 1.621 21.163 4.992 3.2 1.451 19.712 8.021 42.667 17.195 187.221 74.752 203.563 83.413 209.067 92.416 39.296 27.904 151.296 133.803 526.379 508.885 0 0 0.043 0 0.043 0.043 8.96 9.045 14.72 23.296 14.72 36.395 0 11.904-4.608 19.968-7.979 25.856zM425.088 235.904c-39.211-17.365-118.272-49.024-162.901-66.859l-37.504 37.504c16.939 41.813 50.261 123.947 66.901 162.901l133.504-133.547zM204.715 146.56c-1.408 3.669-1.877 6.059-2.133 6.059v0c0.469 0.981 2.304 5.291 4.693 11.051l11.947-11.947c-5.973-2.389-10.197-4.181-11.221-4.651-0.683-0.341-2.048-0.853-3.285-0.512zM974.72 757.419c-173.056-173.056-448.683-445.312-511.616-499.2l-29.653 29.653 451.968 447.915c8.363 8.277 8.448 21.803 0.171 30.165-8.235 8.363-21.845 8.448-30.165 0.128l-452.139-448-87.253 87.253 503.168 503.168c1.408 0.768 2.688 1.493 3.925 2.219 1.579 0.896 3.755 2.176 4.608 2.347 2.304 0 5.419-1.536 6.229-2.304l138.539-138.496c0.768-1.408 1.536-2.773 2.304-4.053 0.896-1.579 2.133-3.669 2.304-4.48-0.043-2.261-1.579-5.333-2.389-6.315zM789.333 426.667c-11.776 0-21.333-9.557-21.333-21.333v-384c0-39.424-14.123-42.667-29.867-42.667h-652.8c-26.709 0-42.667 15.957-42.667 42.667v648.533c0 22.656 15.787 34.133 46.933 34.133h379.733c11.776 0 21.333 9.557 21.333 21.333s-9.557 21.333-21.333 21.333h-379.733c-54.443 0-89.6-30.123-89.6-76.8v-648.533c0-50.261 35.072-85.333 85.333-85.333h652.8c27.093 0 72.533 11.093 72.533 85.333v384c0 11.819-9.557 21.333-21.333 21.333z" />
<glyph unicode="&#xe901;" glyph-name="thin-0002_write_pencil_new_edit" d="M996.437 804.437c-0.085 0.085-0.171 0.171-0.256 0.256l-127.744 123.477c-32.768 32.853-91.221 32.853-124.032 0l-631.467-631.467c0 0 0 0 0 0-0.939-0.939-1.877-2.005-3.584-5.419-0.469-0.939-0.981-1.792-1.323-2.731-7.552-16.64-27.648-71.723-98.389-277.504-6.528-19.541-1.28-41.003 13.653-55.979 10.709-10.709 24.747-16.469 39.040-16.469 5.717 0 11.477 0.896 17.024 2.773 181.205 61.355 249.813 84.565 275.84 98.048 3.627 0.981 7.083 2.517 9.813 5.205l631.424 635.776c34.133 34.176 34.133 89.813 0 124.032zM312.107 67.285c-38.955-14.293-112.683-39.893-179.797-62.805l-59.349 59.349c23.168 66.944 48.811 140.245 63.061 179.541l176.085-176.085zM65.792-18.176c-6.187-2.219-10.965 2.005-12.288 3.371-1.323 1.28-5.461 6.101-3.456 12.117 2.389 6.912 4.864 14.208 7.467 21.632l29.867-29.867c-7.467-2.432-14.72-4.907-21.589-7.253zM966.229 710.528l-616.405-620.587-59.392 59.392 501.205 501.163c8.32 8.32 8.32 21.845 0 30.165s-21.845 8.32-30.165 0l-501.205-501.163-102.101 102.101 616.363 616.405c16.725 16.683 46.72 17.024 63.957-0.256l127.872-123.563c17.152-17.323 17.109-46.421-0.128-63.659z" />
<glyph unicode="&#xe902;" glyph-name="thin-0003_write_pencil_new_edit" d="M512 234.667h-341.333c-11.776 0-21.333-9.557-21.333-21.333s9.557-21.333 21.333-21.333h341.333c11.776 0 21.333 9.557 21.333 21.333s-9.557 21.333-21.333 21.333zM512 362.667h-341.333c-11.776 0-21.333-9.557-21.333-21.333s9.557-21.333 21.333-21.333h341.333c11.776 0 21.333 9.557 21.333 21.333s-9.557 21.333-21.333 21.333zM512 490.667h-341.333c-11.776 0-21.333-9.557-21.333-21.333s9.557-21.333 21.333-21.333h341.333c11.776 0 21.333 9.557 21.333 21.333s-9.557 21.333-21.333 21.333zM170.667 576h128c11.776 0 21.333 9.557 21.333 21.333s-9.557 21.333-21.333 21.333h-128c-11.776 0-21.333-9.515-21.333-21.333s9.557-21.333 21.333-21.333zM1024 213.333v639.957c0 59.861-45.013 106.709-102.4 106.709h-48c-58.24 0-105.6-47.872-105.6-106.709v-639.957c0-1.28 0.043-2.432 1.493-7.424 0.128-0.384 0.171-0.768 0.341-1.109 4.693-15.573 21.845-64.128 84.693-237.355 6.016-18.688 22.443-31.232 40.96-31.275 0.043 0 0.043 0 0.085 0 18.432 0 34.304 12.245 40.107 30.379 64.128 173.824 81.579 222.549 86.4 238.208 0.171 0.427 0.256 0.896 0.427 1.323 1.493 4.864 1.493 6.016 1.493 7.253zM923.819 58.581h-56.917c-18.56 51.456-37.12 103.083-47.829 133.419h153.643c-10.88-30.336-29.824-81.963-48.896-133.419zM810.667 853.291c0 35.925 27.605 64.043 62.933 64.043h48c34.048 0 59.733-27.52 59.733-64.043v-618.624h-170.667v618.624zM894.933-18.773c-3.968 10.965-8.192 22.656-12.587 34.688h25.6c-4.523-12.032-8.917-23.723-13.013-34.688zM508.629 953.685c-4.011 4.053-9.472 6.315-15.147 6.315h-434.389c-31.488 0-59.093-25.771-59.093-55.211v-913.579c0-29.397 27.605-55.211 59.093-55.211h568.064c30.592 0 55.509 24.747 55.509 55.211v778.197c0 5.632-2.219 11.008-6.187 15.019l-167.851 169.259zM514.816 886.869l95.317-96.128h-95.317v96.128zM627.157-21.333h-568.064c-7.68 0-16.427 6.656-16.427 12.544v913.579c0 5.76 8.875 12.544 16.427 12.544h413.056v-147.925c0-11.776 9.557-21.333 21.333-21.333h146.517v-756.864c0-6.656-6.016-12.544-12.843-12.544z" />
<glyph unicode="&#xe903;" glyph-name="thin-0004_pencil_ruler_drawing" d="M281.6 960h-46.933c-58.795 0-106.667-47.829-106.667-106.667v-627.2c0-1.237 0-2.389 1.536-7.509 0.128-0.341 0.171-0.683 0.299-0.981 4.779-16.043 22.613-66.987 89.301-251.136 7.595-18.944 24.064-31.019 42.24-31.019 0.384 0 0.811 0 1.195 0 17.792 0.555 32.811 12.885 39.211 32 63.36 183.808 80.256 234.453 84.779 250.368 0.043 0.085 0.043 0.171 0.085 0.256 1.579 5.504 1.621 6.784 1.621 8.021v627.2c0 58.837-47.829 106.667-106.667 106.667zM290.517 64h-61.269c-19.669 54.656-39.253 109.355-50.261 140.8h158.763c-10.325-31.147-28.757-85.589-47.232-140.8zM170.667 853.333c0 35.285 28.715 64 64 64h46.933c35.285 0 64-28.715 64-64v-605.867h-46.933v520.533c0 11.819-9.557 21.333-21.333 21.333s-21.333-9.515-21.333-21.333v-520.533h-85.333v605.867zM261.973-21.973c-0.384 0.128-2.005 1.237-2.987 3.627-4.523 12.459-9.344 25.856-14.336 39.68h31.659c-4.992-15.019-9.856-29.653-14.336-43.307zM874.667 960h-341.333c-11.776 0-21.333-9.515-21.333-21.333v-981.333c0-11.776 9.557-21.333 21.333-21.333h341.333c11.776 0 21.333 9.557 21.333 21.333v981.333c0 11.819-9.557 21.333-21.333 21.333zM853.333-21.333h-298.667v42.667h149.333c11.776 0 21.333 9.557 21.333 21.333s-9.557 21.333-21.333 21.333h-149.333v85.333h64c11.776 0 21.333 9.557 21.333 21.333s-9.557 21.333-21.333 21.333h-64v85.333h149.333c11.776 0 21.333 9.557 21.333 21.333s-9.557 21.333-21.333 21.333h-149.333v85.333h64c11.776 0 21.333 9.557 21.333 21.333s-9.557 21.333-21.333 21.333h-64v85.333h149.333c11.776 0 21.333 9.557 21.333 21.333s-9.557 21.333-21.333 21.333h-149.333v85.333h64c11.776 0 21.333 9.557 21.333 21.333s-9.557 21.333-21.333 21.333h-64v85.333h149.333c11.776 0 21.333 9.557 21.333 21.333s-9.557 21.333-21.333 21.333h-149.333v85.333h298.667v-938.667z" />
<glyph unicode="&#xe904;" glyph-name="thin-0005_write_pen_handwriting_signing" d="M709.589 881.749c-6.016 6.016-14.976 7.808-22.869 4.779l-391.851-153.429c-9.088-3.541-14.592-12.885-13.397-22.571 0.341-2.603 29.099-264.32-271.36-616.533-7.211-8.448-6.741-21.035 1.152-28.928l58.709-58.709c0 0 0 0 0-0.043s0 0 0.043 0l58.709-58.709c4.139-4.181 9.6-6.229 15.104-6.229 4.907 0 9.813 1.707 13.867 5.077 352.171 300.459 614.101 271.659 616.533 271.36 9.429-1.365 18.987 4.309 22.571 13.355l153.387 391.936c3.072 7.893 1.195 16.853-4.779 22.869l-235.819 235.776zM762.795 261.376c-64.853 2.133-304.512-8.576-617.771-269.739l-29.824 29.781 413.141 413.184c10.069-5.333 21.376-8.619 33.536-8.619 39.893 0 72.32 32.469 72.32 72.32s-32.469 72.32-72.32 72.32-72.32-32.427-72.32-72.32c0-12.16 3.285-23.467 8.619-33.536l-413.184-413.184-29.781 29.781c261.291 313.344 272.341 553.131 269.824 617.728l364.245 142.635 216.021-216.064-142.507-364.288zM532.267 498.304c0 16.341 13.312 29.653 29.653 29.653 16.384 0 29.653-13.312 29.653-29.653s-13.312-29.653-29.653-29.653c-8.192 0-15.573 3.328-20.949 8.704 0 0 0 0 0 0s0 0 0 0c-5.376 5.376-8.704 12.757-8.704 20.949zM1012.736 701.099l-249.685 249.685c-8.32 8.32-21.845 8.32-30.165 0s-8.32-21.845 0-30.165l249.685-249.685c4.181-4.181 9.643-6.229 15.104-6.229s10.923 2.091 15.104 6.229c8.32 8.363 8.32 21.845-0.043 30.165z" />
<glyph unicode="&#xe905;" glyph-name="thin-0006_book_writing_reading_read_manual" d="M968.107 688.469c-5.333 1.963-123.563 41.429-401.28-72.363 63.787 60.885 181.248 141.867 361.984 151.851 11.776 0.64 20.779 10.709 20.139 22.443s-10.325 21.163-22.443 20.139c-182.272-10.069-303.915-85.717-375.211-149.589 45.269 75.179 140.459 170.965 339.115 216.96 11.477 2.645 18.645 14.123 15.957 25.6-2.645 11.477-14.080 18.645-25.643 16-254.037-58.88-352-195.883-389.419-282.453-37.419 86.571-135.381 223.573-389.419 282.453-11.435 2.603-22.955-4.523-25.6-16s4.48-22.955 16-25.6c198.613-46.037 293.76-141.824 339.072-217.003-71.339 63.872-192.981 139.563-375.253 149.632-11.477 1.536-21.803-8.363-22.443-20.139-0.683-11.733 8.32-21.803 20.096-22.443 183.040-10.112 301.355-93.099 364.544-154.24-281.472 116.864-397.696 76.629-402.901 74.709-9.003-3.371-14.592-12.331-13.739-21.888l51.456-577.451c0.981-11.051 10.24-19.456 21.248-19.456 0.085 0 0.213 0 0.341 0 216.917 3.243 400.683-124.971 402.517-126.251 0.384-0.299 0.939-0.171 1.365-0.427 0.512-0.299 0.725-0.896 1.28-1.195 3.072-1.579 6.443-2.389 9.771-2.389s6.699 0.811 9.771 2.389c0.512 0.256 0.725 0.811 1.195 1.109 0.427 0.256 0.981 0.171 1.408 0.427 1.792 1.28 181.035 126.421 395.776 126.421 3.072 0 4.693-0.213 9.387-0.085 11.008 0 20.224 8.363 21.248 19.371l53.675 577.451c0.853 9.685-4.864 18.731-13.995 22.016zM45.824 651.648c42.24 6.059 172.373 9.643 422.485-106.24v-545.707c-62.635 37.376-205.269 109.824-374.4 112.597l-48.085 539.349zM887.68 112.299c-169.6-2.731-313.771-75.52-376.704-112.811v545.92c250.795 116.181 383.744 112.469 426.88 106.155l-50.176-539.264z" />
<glyph unicode="&#xe906;" glyph-name="thin-0007_book_reading_read_bookmark" d="M362.667 576h-213.333c-11.776 0-21.333-9.515-21.333-21.333s9.557-21.333 21.333-21.333h213.333c11.776 0 21.333 9.557 21.333 21.333s-9.557 21.333-21.333 21.333zM362.667 448h-213.333c-11.776 0-21.333-9.515-21.333-21.333s9.557-21.333 21.333-21.333h213.333c11.776 0 21.333 9.557 21.333 21.333s-9.557 21.333-21.333 21.333zM362.667 320h-213.333c-11.776 0-21.333-9.515-21.333-21.333s9.557-21.333 21.333-21.333h213.333c11.776 0 21.333 9.557 21.333 21.333s-9.557 21.333-21.333 21.333zM896 790.016v63.317c0 11.819-9.557 21.333-21.333 21.333h-256c-11.776 0-21.333-9.515-21.333-21.333v-63.488c-51.157-9.984-87.211-23.424-107.52-40.875-42.197 35.029-138.453 53.163-233.813 53.163-118.101 0-256-24.576-256-93.867v-635.733c0-6.229 2.688-12.117 7.424-16.171 3.883-3.371 8.832-5.163 13.909-5.163 1.024 0 2.091 0.085 3.157 0.256 87.253 13.099 145.152 21.077 231.509 21.077 108.715 0 193.707-5.973 227.883-16 0.128-0.043 0.256-0.043 0.427-0.085 0.043 0 0.171-0.043 0.213-0.043 0.256-0.085 0.555 0.043 0.811-0.043 2.432-0.64 4.907-1.067 7.424-0.725l17.621 1.749c113.707 11.392 151.979 15.189 236.288 15.189 78.592 0 154.155-6.272 252.843-21.077 1.024-0.171 2.133-0.256 3.157-0.256 5.077 0 10.027 1.792 13.909 5.163 4.736 4.011 7.424 9.941 7.424 16.128v635.733c0 48.341-79.189 71.851-128 81.749zM640 832h213.333v-443.477c-0.128 0.043-0.299 0.085-0.427 0.128l-78.336 65.835c-8.192 8.277-19.669 9.515-25.771 9.515-6.059 0-17.493-1.237-23.979-7.893l-84.821-64.512v440.405zM42.667 97.323v610.944c0 17.877 73.259 51.2 213.333 51.2 139.989 0 213.333-38.059 213.333-51.2v-604.928c-62.805 10.581-166.699 11.861-213.333 11.861-80.939 0-137.173-6.699-213.333-17.877zM981.333 97.237c-89.173 12.587-160.555 18.005-234.667 18.005-84.907 0-123.904-3.755-234.667-14.848v607.872c0 5.717 16.811 23.723 85.333 38.187v-362.453c0-13.056 7.723-24.96 20.608-31.872 14.976-8.021 33.323-7.552 48.171 2.432l82.517 66.133 78.165-65.792c0.64-0.512 1.237-0.939 1.92-1.408 7.808-5.205 17.109-7.851 26.368-7.851 7.381 0 14.677 1.664 21.035 5.077 12.459 6.613 19.883 19.072 19.883 33.28v362.368c60.587-13.44 83.883-32.256 85.333-38.101v-611.029z" />
<glyph unicode="&#xe907;" glyph-name="thin-0008_book_reading_read_manual" d="M360.832 576h-211.797c-11.776 0-21.333-9.557-21.333-21.333s9.557-21.333 21.333-21.333h211.755c11.776 0 21.333 9.557 21.333 21.333s-9.515 21.333-21.291 21.333zM360.832 448h-211.797c-11.776 0-21.333-9.557-21.333-21.333s9.557-21.333 21.333-21.333h211.755c11.776 0 21.333 9.557 21.333 21.333s-9.515 21.333-21.291 21.333zM360.832 320h-211.797c-11.776 0-21.333-9.557-21.333-21.333s9.557-21.333 21.333-21.333h211.755c11.776 0 21.333 9.557 21.333 21.333s-9.515 21.333-21.291 21.333zM872.363 576h-210.603c-11.776 0-21.333-9.557-21.333-21.333s9.557-21.333 21.333-21.333h210.603c11.776 0 21.333 9.557 21.333 21.333s-9.515 21.333-21.333 21.333zM872.363 448h-210.603c-11.776 0-21.333-9.557-21.333-21.333s9.557-21.333 21.333-21.333h210.603c11.776 0 21.333 9.557 21.333 21.333s-9.515 21.333-21.333 21.333zM872.363 320h-210.603c-11.776 0-21.333-9.557-21.333-21.333s9.557-21.333 21.333-21.333h210.603c11.776 0 21.333 9.557 21.333 21.333s-9.515 21.333-21.333 21.333zM755.115 798.763c-100.651 0-201.813-16.427-244.608-52.053-42.795 35.669-143.957 52.053-244.565 52.053-132.395 0-265.941-28.288-265.941-91.563v-625.408c0-6.656 3.115-12.928 8.405-16.939 3.755-2.859 8.32-4.395 12.928-4.395 1.877 0 3.755 0.256 5.632 0.768 38.357 10.496 141.099 18.432 238.976 18.432 87.083 0 149.717-6.357 241.707-18.944 0.981-0.128 1.92 0.213 2.901 0.213s1.92-0.341 2.901-0.213c91.989 12.587 154.667 18.944 241.749 18.944 97.835 0 200.533-7.936 238.933-18.432 1.835-0.512 3.755-0.768 5.632-0.768 4.608 0 9.173 1.493 12.971 4.395 5.291 4.053 8.363 10.283 8.363 16.939v625.408c-0.085 63.275-133.632 91.563-265.984 91.563zM42.667 108.075v599.083c1.536 14.635 79.317 48.939 223.232 48.939s221.739-34.304 223.232-48.896v-601.003c-81.152 10.709-141.611 16.128-223.232 16.128-72.448-0.043-165.973-4.523-223.232-14.251zM978.347 108.075c-57.259 9.728-150.741 14.208-223.189 14.208-81.621 0-142.080-5.419-223.275-16.128v601.003c1.536 14.635 79.36 48.939 223.275 48.939s221.696-34.304 223.189-48.896v-599.125z" />
<glyph unicode="&#xe908;" glyph-name="thin-0009_book_reading_read_manual" d="M896.085 788.267c0.043 0.683-0.213 1.28-0.213 1.963v0c0 0 0 0 0 0.043 0 3.243-0.768 6.229-2.091 8.96-0.171 0.341-0.341 0.64-0.512 0.939-1.323 2.389-2.987 4.437-5.12 6.187-0.256 0.213-0.384 0.597-0.64 0.811-0.213 0.171-0.469 0.171-0.683 0.299-1.963 1.365-4.139 2.261-6.485 2.944-0.811 0.213-1.493 0.555-2.304 0.683-0.427 0.043-0.725 0.299-1.152 0.341-70.997 6.613-119.509 26.709-140.245 58.027-18.432 27.819-9.685 56.363-9.344 57.387 2.56 7.552 0.725 15.915-4.821 21.632-5.547 5.76-13.867 7.893-21.461 5.675l-516.053-153.045c-0.427-0.128-0.683-0.427-1.067-0.555-0.384-0.171-0.853-0.171-1.237-0.299-1.024-0.469-1.749-1.237-2.688-1.835-1.109-0.683-2.219-1.28-3.157-2.133-0.299-0.256-0.64-0.384-0.939-0.64-0.725-0.725-1.109-1.707-1.707-2.517-0.768-1.109-1.621-2.133-2.176-3.328-0.171-0.341-0.469-0.597-0.64-0.981-0.341-0.853-0.341-1.877-0.555-2.816-0.384-1.408-0.768-2.773-0.853-4.267-0.043-0.427-0.213-0.768-0.213-1.152v-0.171l0.768-673.792c0-1.493 2.603-148.523 189.696-165.291 0.427-0.043 0.811-0.427 1.237-0.427 0.341 0 0.64 0.128 0.939 0.128 0.128 0 0.213-0.043 0.341-0.043 0.597-0.043 1.195-0.085 1.792-0.085 3.584 0 6.827 1.152 9.813 2.731l505.899 137.856c9.259 2.56 15.701 10.965 15.701 20.565v685.483c0 0.256 0.128 0.469 0.171 0.725zM360.747 672.341c-31.445 3.115-56.235 9.813-75.733 18.56l439.808 128.811c15.488-13.184 35.029-23.893 58.453-32.213l-422.528-115.157zM695.637 855.637l-455.893-133.547c-14.763 15.872-21.589 32-24.704 43.392l467.371 138.709c0.555-14.208 4.096-31.232 13.227-48.555zM213.163 106.709l-0.683 582.784c2.475-2.517 4.907-5.035 7.68-7.509 0.597-0.512 1.067-0.981 1.749-1.408 25.173-21.803 62.72-40.576 118.187-48.597v-645.163c-123.989 21.803-126.891 115.755-126.933 119.893zM853.205 118.4l-470.443-128.213v643.925l470.443 128.213v-643.925z" />
<glyph unicode="&#xe909;" glyph-name="thin-0010_newspaper_reading_news" d="M489.771 405.333h-212.437c-11.776 0-21.333-9.515-21.333-21.333s9.557-21.333 21.333-21.333h212.437c11.776 0 21.333 9.557 21.333 21.333s-9.557 21.333-21.333 21.333zM489.771 277.333h-212.437c-11.776 0-21.333-9.515-21.333-21.333s9.557-21.333 21.333-21.333h212.437c11.776 0 21.333 9.557 21.333 21.333s-9.557 21.333-21.333 21.333zM489.771 533.333h-212.437c-11.776 0-21.333-9.557-21.333-21.333s9.557-21.333 21.333-21.333h212.437c11.776 0 21.333 9.557 21.333 21.333s-9.557 21.333-21.333 21.333zM489.771 661.333h-212.437c-11.776 0-21.333-9.515-21.333-21.333s9.557-21.333 21.333-21.333h212.437c11.776 0 21.333 9.557 21.333 21.333s-9.557 21.333-21.333 21.333zM873.771 277.333h-255.104c-11.776 0-21.333-9.557-21.333-21.333 0 0 0 0 0 0s0 0 0 0c0-11.776 9.557-21.333 21.333-21.333h255.104c11.776 0 21.333 9.557 21.333 21.333 0 0 0 0 0 0s0 0 0 0c0 11.819-9.515 21.333-21.333 21.333zM873.813 661.333h-255.104c-11.776 0-21.333-9.557-21.333-21.333v-256c0-11.776 9.557-21.333 21.333-21.333h255.104c11.776 0 21.333 9.557 21.333 21.333v256c0 11.776-9.515 21.333-21.333 21.333zM852.48 405.333h-212.437v213.333h212.437v-213.333zM928.085 787.072h-778.88c-11.776 0-21.333-9.557-21.333-21.333v-40.107h-106.368c-11.776 0-21.333-9.557-21.333-21.333v-512.768c0-46.848 38.912-86.357 84.992-86.357 1.024 0 2.005 0.299 3.029 0.341 0.256 0 0.469-0.171 0.768-0.171h841.685c51.2 0 92.843 42.197 92.843 94.123v488.363c-0.043 54.741-42.837 99.243-95.403 99.243zM42.837 191.531v491.435h85.035v-491.093c0-23.467-19.925-44.032-42.667-44.032-22.571-0.043-42.368 20.395-42.368 43.691zM980.779 199.424c0-28.885-22.059-51.456-50.176-51.456h-772.608c7.765 13.013 12.501 27.947 12.501 43.861v512.427c0 0.043 0 0.085 0 0.085v40.064h757.547c28.587 0 52.693-25.899 52.693-56.576v-488.405z" />
<glyph unicode="&#xe90a;" glyph-name="thin-0011_reading_glasses" d="M992.725 367.616c-0.213 2.944-0.896 5.888-2.389 8.661l-190.208 355.328c-5.163 9.6-52.139 93.184-120.405 93.184-0.256 0-0.512 0-0.768 0-41.771-0.384-79.019-31.872-110.72-93.525-5.419-10.453-1.28-23.339 9.216-28.715 10.411-5.376 23.339-1.28 28.715 9.216 16.427 31.915 42.453 70.059 73.131 70.357 0.128 0 0.256 0 0.427 0 36.48 0 72.149-51.029 82.816-70.699l134.144-250.624c-33.621 15.573-72.619 25.045-114.773 25.045-87.595 0-162.816-39.125-198.997-95.36-46.251 9.045-93.909 7.979-139.605-3.157-35.328 57.984-111.957 98.517-201.216 98.517-41.813 0-80.555-9.387-114.005-24.747l132.779 248.107c9.899 18.389 46.336 70.741 82.859 70.741 0.128 0 0.213 0 0.341 0 30.677-0.299 56.704-38.443 73.131-70.357 5.333-10.453 18.176-14.592 28.715-9.216 10.496 5.376 14.592 18.261 9.216 28.715-31.701 61.653-68.907 93.141-110.635 93.525-70.571 0-116.011-83.541-121.216-93.227l-185.088-345.771c-0.555-0.981-1.067-2.005-1.621-3.029l-3.499-6.571c-1.323-2.475-2.005-5.077-2.304-7.68-6.485-15.872-10.965-32.384-10.965-49.835 0-93.355 99.712-169.387 222.293-169.387s222.293 75.989 222.293 169.387c0 10.624-1.664 20.907-4.096 30.976 34.091 7.381 69.291 8.448 103.893 3.029-2.944-11.008-4.523-22.357-4.523-34.005 0-93.355 99.712-169.387 222.293-169.387s222.293 75.989 222.293 169.387c-0.043 17.92-4.693 34.901-11.52 51.115zM242.091 189.781c-99.029 0-179.627 56.832-179.627 126.72 0 15.659 4.565 30.549 11.989 44.416l3.669 6.827c27.989 44.373 90.837 75.477 163.968 75.477 99.029 0 179.627-56.832 179.627-126.677s-80.597-126.763-179.627-126.763zM781.909 189.781c-99.029 0-179.627 56.832-179.627 126.72s80.597 126.677 179.627 126.677 179.627-56.832 179.627-126.677-80.597-126.72-179.627-126.72z" />
<glyph unicode="&#xe90b;" glyph-name="thin-0012_notebook_paper_certificate" d="M321.536 704h381.781c11.776 0 21.333 9.557 21.333 21.333s-9.557 21.333-21.376 21.333h-381.739c-11.776 0-21.333-9.557-21.333-21.333s9.515-21.333 21.333-21.333zM321.536 576h381.781c11.776 0 21.333 9.557 21.333 21.333s-9.557 21.333-21.376 21.333h-381.739c-11.776 0-21.333-9.557-21.333-21.333s9.515-21.333 21.333-21.333zM321.536 448h381.781c11.776 0 21.333 9.557 21.333 21.333s-9.557 21.333-21.333 21.333h-381.781c-11.776 0-21.333-9.557-21.333-21.333s9.515-21.333 21.333-21.333zM638.251 341.333c0 11.776-9.557 21.333-21.333 21.333h-295.381c-11.776 0-21.333-9.557-21.333-21.333s9.557-21.333 21.333-21.333h295.381c11.776 0 21.333 9.557 21.333 21.333zM683.264 222.421c-40.491 0-73.429-32.896-73.429-73.429s32.896-73.429 73.429-73.429 73.429 32.896 73.429 73.429-32.939 73.429-73.429 73.429zM683.264 118.272c-16.939 0-30.763 13.781-30.763 30.763s13.781 30.763 30.763 30.763 30.763-13.781 30.763-30.763-13.824-30.763-30.763-30.763zM773.76 960h-523.52c-67.413 0-122.24-54.827-122.24-122.24v-779.52c0-67.413 54.827-122.24 122.24-122.24h523.52c67.413 0 122.24 54.827 122.24 122.24v779.52c0 67.413-54.827 122.24-122.24 122.24zM853.333 58.24c0-43.861-35.712-79.573-79.573-79.573h-523.52c-43.861 0-79.573 35.712-79.573 79.573v779.52c0 43.861 35.712 79.573 79.573 79.573h523.52c43.861 0 79.573-35.712 79.573-79.573v-779.52z" />
<glyph unicode="&#xe90c;" glyph-name="thin-0013_notebook_paper" d="M773.888 960h-523.52c-67.413 0-122.24-54.827-122.24-122.24v-779.52c0-67.413 54.827-122.24 122.24-122.24h523.52c67.413 0 122.24 54.827 122.24 122.24v779.52c0 67.413-54.827 122.24-122.24 122.24zM170.795 58.24v779.52c0 43.861 35.712 79.573 79.573 79.573h48.341v-938.667h-48.341c-43.861 0-79.573 35.712-79.573 79.573zM853.461 58.24c0-43.861-35.712-79.573-79.573-79.573h-432.512v938.667h432.512c43.861 0 79.573-35.712 79.573-79.573v-779.52zM703.147 704h-254.123c-11.776 0-21.333-9.557-21.333-21.333s9.557-21.333 21.333-21.333h254.123c11.776 0 21.333 9.557 21.333 21.333s-9.515 21.333-21.333 21.333zM617.6 618.667h-168.533c-11.776 0-21.333-9.557-21.333-21.333s9.557-21.333 21.333-21.333h168.533c11.776 0 21.333 9.557 21.333 21.333s-9.557 21.333-21.333 21.333z" />
<glyph unicode="&#xe90d;" glyph-name="thin-0014_notebook_paper_todo" d="M774.016 874.667h-112.427v63.573c0 11.776-9.557 21.333-21.333 21.333s-21.333-9.557-21.333-21.333v-63.573h-85.333v63.573c0 11.776-9.557 21.333-21.333 21.333s-21.333-9.557-21.333-21.333v-63.573h-85.333v63.573c0 11.776-9.557 21.333-21.333 21.333s-21.333-9.557-21.333-21.333v-63.573h-112.427c-67.413 0-122.24-54.827-122.24-122.24v-694.187c0-67.413 54.827-122.24 122.24-122.24h523.52c67.413 0 122.24 54.827 122.24 122.24v694.187c0 67.413-54.827 122.24-122.24 122.24zM853.589 58.24c0-43.861-35.712-79.573-79.573-79.573h-523.52c-43.861 0-79.573 35.712-79.573 79.573v694.187c0 43.861 35.712 79.573 79.573 79.573h112.427v-21.461c0-11.776 9.557-21.333 21.333-21.333s21.333 9.557 21.333 21.333v21.461h85.333v-21.461c0-11.776 9.557-21.333 21.333-21.333s21.333 9.557 21.333 21.333v21.461h85.333v-21.461c0-11.776 9.557-21.333 21.333-21.333s21.333 9.557 21.333 21.333v21.461h112.427c43.861 0 79.573-35.669 79.573-79.573v-694.187zM701.355 618.667h-380.885c-11.776 0-21.333-9.557-21.333-21.333s9.515-21.333 21.333-21.333h380.885c11.776 0 21.333 9.557 21.333 21.333s-9.557 21.333-21.333 21.333zM701.355 448h-380.885c-11.776 0-21.333-9.557-21.333-21.333s9.557-21.333 21.333-21.333h380.885c11.776 0 21.333 9.557 21.333 21.333s-9.557 21.333-21.333 21.333zM701.355 277.333h-380.885c-11.776 0-21.333-9.557-21.333-21.333s9.557-21.333 21.333-21.333h380.885c11.776 0 21.333 9.557 21.333 21.333s-9.557 21.333-21.333 21.333z" />
<glyph unicode="&#xe90e;" glyph-name="thin-0015_fountain_pen" d="M960.768 367.104c23.808 44.544 76.416 156.245 42.411 215.68-7.509 13.141-21.717 28.245-48.384 34.56 13.781 56.32 27.733 191.872-108.459 313.515-8.064 7.211-20.352 7.211-28.416 0-136.192-121.643-122.24-257.195-108.459-313.515-26.667-6.315-40.875-21.419-48.384-34.56-34.005-59.435 18.688-171.136 42.411-215.68-26.368-20.352-39.979-45.099-40.405-73.856-1.28-82.091 111.189-164.48 147.712-189.056v-145.963c0-11.776 9.557-21.333 21.333-21.333s21.333 9.557 21.333 21.333v145.963c36.523 24.576 148.992 106.965 147.712 189.056-0.469 28.757-14.037 53.504-40.405 73.856zM832.128 141.269c-42.496 29.269-127.189 98.56-126.379 151.296 0.299 18.859 12.288 35.029 36.736 49.408 10.112 5.973 13.483 18.987 7.595 29.184-31.488 53.717-73.472 152.917-51.968 190.464 2.304 3.968 9.216 16.085 39.253 16.085 7.168 0 13.867 3.627 17.792 9.643 3.968 6.016 4.565 13.568 1.749 20.181-0.64 1.493-60.203 144.512 75.221 278.187 134.699-132.693 77.739-272.171 75.179-278.229-2.773-6.571-2.091-14.165 1.835-20.139 3.968-5.973 10.624-9.6 17.749-9.6 30.080 0 36.992-12.117 39.253-16.085 21.504-37.547-20.437-136.747-51.968-190.464-5.931-10.155-2.56-23.211 7.595-29.184 24.448-14.379 36.437-30.549 36.736-49.365 0.853-53.163-82.432-121.301-126.379-151.381zM832.128 575.317c-11.776 0-21.333-9.557-21.333-21.333v-295.381c0-11.776 9.557-21.333 21.333-21.333s21.333 9.557 21.333 21.333v295.381c0 11.776-9.557 21.333-21.333 21.333zM423.125 257.152v41.515c0 11.733 9.387 21.333 20.907 21.333 11.776 0 21.333 9.557 21.333 21.333v128c0 11.776-9.557 21.333-21.333 21.333h-293.077c-11.776 0-21.333-9.557-21.333-21.333v-128c0-11.776 9.557-21.333 21.333-21.333 11.563 0 20.907-9.6 20.907-21.333v-41.557c-85.76-50.731-168.96-166.571-168.96-299.776 0-11.776 9.557-21.333 21.333-21.333h546.475c11.776 0 21.333 9.557 21.333 21.333 0 133.205-83.2 249.045-168.917 299.819zM46.379-21.333c8.789 112.043 84.821 209.493 156.672 246.997 7.040 3.669 11.477 10.965 11.477 18.901v54.101c0 27.733-17.664 51.456-42.24 60.288v89.045h250.411v-89.045c-24.619-8.832-42.24-32.555-42.24-60.288v-54.101c0-7.979 4.437-15.232 11.477-18.901 71.808-37.504 147.883-134.955 156.629-246.997h-502.187z" />
<glyph unicode="&#xe90f;" glyph-name="thin-0016_bookmarks_reading_book" d="M1015.552 906.368c-4.309 4.011-10.069 5.845-15.957 5.717 0 0-25.088-1.621-64.256-5.845v22.272c0 5.888-2.432 11.52-6.699 15.531s-9.771 5.973-15.915 5.76c-58.709-3.584-321.664-24.405-401.237-114.603-77.056 89.856-343.851 110.976-402.987 114.603-5.76 0.299-11.605-1.707-15.915-5.76-4.267-4.053-6.699-9.643-6.699-15.531v-22.571c-39.979 4.437-64.171 6.144-64.171 6.144-5.845 0.256-11.691-1.664-16.043-5.675-4.309-4.053-6.741-9.685-6.741-15.616v-825.771c0-6.016 2.517-11.691 6.955-15.744 4.395-4.011 10.325-6.059 16.299-5.504 173.781 15.403 454.443 6.656 467.328-83.115 0.085-0.427 0.341-0.811 0.427-1.237 0.256-1.195 0.683-2.219 1.109-3.328 0.555-1.408 1.109-2.731 1.92-3.925 0.64-0.981 1.365-1.792 2.176-2.645 0.981-1.067 2.005-2.048 3.2-2.901 0.939-0.683 1.92-1.237 2.987-1.792 1.365-0.683 2.816-1.152 4.309-1.536 0.683-0.171 1.28-0.597 2.005-0.725 1.024-0.128 2.005-0.213 2.987-0.213 0 0 0 0 0.043 0 0 0 0 0 0.043 0 0 0 0 0 0 0s0 0 0 0c0.512 0 0.981 0 1.493 0.043 0.981 0.085 1.792 0.555 2.731 0.725 1.408 0.299 2.816 0.555 4.096 1.109 1.152 0.512 2.091 1.195 3.115 1.877 1.109 0.725 2.219 1.408 3.157 2.347 0.896 0.853 1.536 1.792 2.261 2.773 0.811 1.109 1.579 2.176 2.176 3.413 0.512 1.109 0.853 2.261 1.152 3.456 0.256 0.896 0.725 1.664 0.853 2.603 12.928 89.771 293.632 98.603 467.328 83.115 6.229-0.384 11.904 1.493 16.341 5.504 4.437 4.053 6.912 9.771 6.912 15.744v825.728c-0.043 5.888-2.517 11.52-6.784 15.573zM892.672 905.6v-708.267c-79.531 5.547-273.877 12.373-360.747-42.581l-0.213 632.405c9.472 64.043 209.536 106.453 360.96 118.443zM128.555 905.6c151.424-11.989 351.488-54.272 360.747-115.328v-635.477c-59.349 37.461-168.832 46.165-257.579 46.165-41.173 0-77.952-1.877-103.125-3.627v708.267zM41.6 88.107v779.477c11.179-1.024 26.197-2.517 44.288-4.565v-688.725c0-5.973 2.517-11.648 6.912-15.701s10.069-5.845 16.256-5.547c151.637 13.227 369.195 2.475 380.203-62.293v-59.819c-103.424 74.539-362.197 63.275-447.659 57.173zM979.627 88.107c-85.589 6.059-344.405 17.28-447.701-57.344v60.032c11.051 64.683 228.437 75.477 380.245 62.293 5.632-0.427 11.819 1.493 16.256 5.547s6.912 9.771 6.912 15.701v688.981c17.877 1.963 32.981 3.413 44.288 4.395v-779.605z" />
<glyph unicode="&#xe910;" glyph-name="thin-0017_office_archive" d="M1001.344 63.872h-95.573l96.384 34.56c10.795 3.883 16.597 15.616 13.141 26.539l-192 603.435c-1.749 5.504-5.675 10.112-10.88 12.672-5.163 2.517-11.221 2.901-16.683 0.939l-199.595-71.509v12.032c0 11.776-9.557 21.333-21.333 21.333h-512c-11.776 0-21.333-9.557-21.333-21.333v-618.667h-18.091c-11.776 0-21.333-9.557-21.333-21.333s9.557-21.333 21.333-21.333h977.963c11.776 0 21.333 9.557 21.333 21.333s-9.557 21.333-21.333 21.333zM789.333 694.4l179.029-562.773-171.435-61.397-179.072 562.731 171.477 61.44zM754.176 63.872h-158.037v496.555l158.037-496.555zM84.181 661.205h213.333v-597.333h-213.333v597.333zM340.181 63.872v597.333h213.333v-597.333h-213.333zM232.192 191.872h-86.272c-11.776 0-21.333-9.557-21.333-21.333s9.557-21.333 21.333-21.333h86.272c11.776 0 21.333 9.557 21.333 21.333s-9.515 21.333-21.333 21.333zM488.235 191.872h-86.315c-11.776 0-21.333-9.557-21.333-21.333s9.557-21.333 21.333-21.333h86.272c11.776 0 21.333 9.557 21.333 21.333s-9.515 21.333-21.291 21.333zM797.867 577.408c-5.461 16.555-16.896 29.781-32.256 37.248-14.848 7.211-31.573 8.235-47.104 2.603-32.128-11.477-49.365-47.787-38.443-80.896 5.419-16.555 16.896-29.781 32.213-37.248 8.448-4.139 17.536-6.229 26.624-6.229 6.912 0 13.824 1.195 20.523 3.584 32.128 11.52 49.365 47.872 38.443 80.939zM745.045 536.661c-4.565-1.664-9.643-1.323-14.037 0.811-4.864 2.389-8.576 6.741-10.411 12.288-3.712 11.349 1.792 23.595 12.331 27.392 2.005 0.725 4.053 1.067 6.101 1.067 2.688 0 5.419-0.597 7.936-1.835 4.907-2.389 8.619-6.784 10.453-12.288 3.627-11.179-2.005-23.723-12.373-27.435zM189.099 620.331c-35.541 0-64.469-28.928-64.469-64.469s28.928-64.469 64.469-64.469c35.541 0 64.469 28.928 64.469 64.469s-28.928 64.469-64.469 64.469zM189.099 534.059c-12.032 0-21.803 9.771-21.803 21.803s9.771 21.803 21.803 21.803 21.76-9.771 21.76-21.803-9.771-21.803-21.76-21.803zM445.099 491.392c35.541 0 64.469 28.928 64.469 64.469s-28.928 64.469-64.469 64.469c-35.541 0-64.469-28.928-64.469-64.469s28.885-64.469 64.469-64.469zM445.099 577.664c12.032 0 21.803-9.771 21.803-21.803s-9.771-21.803-21.803-21.803-21.845 9.771-21.845 21.803 9.813 21.803 21.845 21.803z" />
<glyph unicode="&#xe911;" glyph-name="thin-0018_office_trash_bin" d="M937.771 818.048c0 89.173-212.395 135.808-422.144 135.808s-422.101-46.677-422.101-135.808c0-0.512 0.213-0.981 0.213-1.451 0-0.427-0.171-0.811-0.128-1.28l72.32-775.424c0-11.221 5.205-21.077 13.653-29.995 0.725-1.067 1.195-2.261 2.176-3.2 1.024-1.024 2.304-1.493 3.456-2.261 56.107-47.445 223.573-61.312 330.453-61.312 129.877 0 349.739 20.395 349.653 94.848l72.405 777.387c0.043 0.427-0.128 0.811-0.128 1.28 0 0.427 0.171 0.896 0.171 1.408zM824.789 62.037l-96.768 97.792 117.547 125.397-20.779-223.189zM515.669 313.771l153.131-154.709-153.173-163.456-153.515 163.029 153.557 155.136zM332.843 189.696l-144.213 153.131 149.12 150.656 147.883-149.419-152.789-154.368zM545.664 344.064l148.437 149.973 148.693-149.376-144.811-154.496-152.32 153.899zM515.669 374.4l-147.883 149.419 147.925 149.461 148.309-148.992-148.352-149.888zM566.016 683.221c131.029 4.693 255.957 27.605 322.347 67.755l-194.304-196.352-128.043 128.597zM337.749 554.155l-194.773 196.779c66.432-40.149 191.403-63.061 322.517-67.755l-127.744-129.024zM307.755 523.819l-131.755-133.12-27.349 293.888 159.104-160.768zM186.027 283.392l116.821-124.032-96.213-97.195-20.608 221.227zM332.075 128.256l133.248-141.525c-116.608 4.224-197.845 22.4-234.667 39.040l101.419 102.485zM698.837 128.683l102.144-103.211c-36.693-16.299-118.101-34.517-235.179-38.741l133.035 141.952zM855.509 392.363l-131.413 132.011 158.549 160.213-27.136-292.224zM515.627 911.189c231.467 0 379.221-55.083 379.435-93.056l-0.043-0.299c-0.555-37.973-148.139-92.928-379.264-92.928-0.085 0-0.171 0-0.213 0s-0.085 0-0.128 0c-231.083 0-378.624 54.955-379.179 92.885l-0.043 0.341c0.256 37.973 148.011 93.056 379.435 93.056z" />
<glyph unicode="&#xe912;" glyph-name="thin-0019_mobile_iphone" d="M971.136 538.965c-19.285 33.621-52.992 49.963-87.381 44.203l41.984 35.157c36.651 26.539 44.715 82.859 17.536 123.008-12.885 18.987-32.213 31.573-54.443 35.499-4.011 0.725-8.064 0.811-12.075 0.896 31.573 28.629 36.736 81.237 10.112 118.741-13.269 18.688-32.853 30.891-55.168 34.304-21.931 3.371-44.032-2.176-62.805-16.427l-11.392-9.515c-16.043 32.256-49.195 55.168-86.784 55.168h-320.299c-51.157 0-94.421-44.715-94.421-97.621v-142.208c-15.36 43.477-36.139 80.683-64.085 98.816-21.888 14.165-46.891 16.555-72.448 6.699-48.896-18.816-43.093-95.36-34.987-201.301 7.211-94.976 16.256-213.205-17.621-297.429-32.469-80.853-26.496-175.701 15.659-247.637 30.592-52.224 94.635-118.059 225.835-134.997 2.645-0.341 5.547-0.512 8.661-0.512 73.472 0 255.317 94.848 302.507 120.149h51.157c50.56 0 93.141 40.533 96.64 89.771 68.651 41.387 127.829 88.277 130.005 90.027 30.549 22.997 64.299 55.552 53.76 103.595-4.736 21.632-17.621 40.021-36.352 51.797-1.109 0.725-2.304 1.408-3.413 2.048l28.885 19.2c39.936 30.379 52.053 75.264 30.933 118.571zM725.333 234.624h-426.667v554.709h426.667v-554.709zM907.947 717.397c13.824-20.437 10.325-51.797-8.405-65.408l-131.541-110.080v121.643l83.541 64.299c8.747 6.315 19.371 8.832 29.867 6.997 10.795-1.92 20.224-8.107 26.539-17.451zM795.477 881.024c8.619 6.571 19.285 9.301 29.781 7.637 10.795-1.664 20.309-7.637 26.837-16.811 14.251-20.096 11.435-51.541-6.912-65.451l-77.184-66.517v118.144l27.477 22.997zM350.421 917.333h320.256c28.629 0 54.656-26.197 54.656-54.955v-30.379h-426.667v30.379c0 29.781 23.723 54.955 51.755 54.955zM313.813-13.312c-90.24 11.648-157.525 51.157-194.475 114.261-35.627 60.757-40.576 141.312-12.885 210.133 37.547 93.483 28.117 217.173 20.565 316.544-4.864 63.659-11.52 150.827 7.765 158.251 12.971 4.992 23.339 4.181 33.877-2.645 53.589-34.773 82.005-205.781 87.339-305.707v-317.44c0-52.992 42.368-96.085 94.421-96.085h175.488c-83.883-41.131-180.011-82.005-212.096-77.312zM670.72 106.667h-320.299c-28.544 0-51.755 23.979-51.755 53.419v31.872h426.667v-31.872c0-28.459-25.557-53.419-54.613-53.419zM871.211 277.504c-0.555-0.427-46.677-36.949-103.211-73.131v101.632l93.995 62.464c10.411 1.877 21.248 0.171 30.037-5.376 8.96-5.632 15.104-14.464 17.408-24.875 4.224-19.456-6.699-36.949-38.229-60.715zM915.499 455.211l-147.499-98.005v105.045l110.976 75.691c20.096 10.411 42.24 2.261 54.485-18.901 11.435-23.637 4.693-46.592-17.963-63.829zM497.067 163.84c-4.267-4.267-6.4-9.387-6.4-15.36 0-5.547 2.133-11.093 6.4-14.933 3.84-3.84 9.387-6.4 14.933-6.4s10.667 2.176 15.36 6.4c3.84 4.267 5.973 9.387 5.973 14.933 0 5.589-2.133 11.136-6.4 15.36-8.107 8.149-22.187 7.68-29.867 0z" />
<glyph unicode="&#xe913;" glyph-name="thin-0020_ipad_reading_mobile" d="M949.504-10.539c-31.915 31.915-73.045 76.203-109.568 117.973-38.315 46.592-36.821 85.589-34.347 150.187 0.896 24.576 2.005 52.437 0.853 84.48-4.011 110.165-94.635 191.232-123.776 214.528v352.171c0 28.715-22.485 51.2-51.2 51.2h-576c-30.080 0-55.467-23.467-55.467-51.2v-708.267c0-27.733 25.387-51.2 55.467-51.2h564.608c29.568-73.173 78.208-152.363 100.096-186.496 4.096-6.315 10.965-9.771 17.963-9.771 3.968 0 7.979 1.067 11.563 3.371 9.899 6.357 12.8 19.584 6.4 29.483-19.243 29.952-83.968 133.845-107.947 210.304-2.944 14.72-23.253 50.688-80.384 142.549-8.107 13.056-13.995 22.443-16.427 26.837-4.437 6.912-5.248 13.099-2.475 18.304 2.987 5.675 10.027 9.856 16.768 10.069 5.76 0.427 10.069-2.517 14.251-9.429l81.067-115.2c6.784-9.6 20.139-11.904 29.739-5.163 9.643 6.784 11.904 20.096 5.163 29.739l-13.184 18.688v186.667c32.981-32.683 78.592-89.941 81.067-158.72 1.109-30.464 0.085-57.515-0.853-81.323-2.56-66.901-4.565-119.808 44.501-179.371 37.504-42.923 79.317-87.979 111.915-120.533 4.181-4.181 9.643-6.229 15.104-6.229s10.923 2.091 15.104 6.229c8.32 8.277 8.32 21.803 0 30.123zM511.189 403.925c-10.069-18.944-8.576-41.301 3.029-59.349 1.152-2.304 7.808-13.184 17.28-28.331 5.803-9.344 14.549-23.467 24.021-38.912h-427.52v554.667h426.667v-397.013c-18.261-3.541-34.731-14.72-43.477-31.061zM615.637 407.765c-4.821 8.064-11.179 14.123-18.304 18.901v426.667c0 11.819-9.557 21.333-21.333 21.333h-469.333c-11.776 0-21.333-9.515-21.333-21.333v-597.333c0-11.776 9.557-21.333 21.333-21.333h474.453c10.368-17.749 18.944-33.237 23.125-42.667h-548.779c-6.571 0-12.8 4.821-12.8 8.533v708.267c0 3.712 6.229 8.533 12.8 8.533h576c5.248 0 8.533-3.285 8.533-8.533v-535.595l-24.363 34.56zM405.333 661.333h81.067c11.776 0 21.333 9.557 21.333 21.333s-9.557 21.333-21.333 21.333h-81.067c-11.776 0-21.333-9.515-21.333-21.333s9.557-21.333 21.333-21.333zM405.333 746.667h81.067c11.776 0 21.333 9.557 21.333 21.333s-9.557 21.333-21.333 21.333h-81.067c-11.776 0-21.333-9.515-21.333-21.333s9.557-21.333 21.333-21.333zM405.333 576h81.067c11.776 0 21.333 9.557 21.333 21.333s-9.557 21.333-21.333 21.333h-81.067c-11.776 0-21.333-9.515-21.333-21.333s9.557-21.333 21.333-21.333zM490.667 533.333h-298.667c-11.776 0-21.333-9.515-21.333-21.333s9.557-21.333 21.333-21.333h298.667c11.776 0 21.333 9.557 21.333 21.333s-9.557 21.333-21.333 21.333zM448 448h-256c-11.776 0-21.333-9.515-21.333-21.333s9.557-21.333 21.333-21.333h256c11.776 0 21.333 9.557 21.333 21.333s-9.557 21.333-21.333 21.333zM362.667 213.333c0 5.547-2.133 11.093-6.4 15.36-8.107 7.68-22.187 7.68-29.867 0-4.267-4.267-6.4-9.813-6.4-15.36s2.133-11.093 6.4-14.933c3.84-4.267 9.387-6.4 14.933-6.4s11.093 2.133 15.36 6.4c3.84 3.84 5.973 9.387 5.973 14.933zM192 576h128c11.776 0 21.333 9.557 21.333 21.333v170.667c0 11.819-9.557 21.333-21.333 21.333h-128c-11.776 0-21.333-9.515-21.333-21.333v-170.667c0-11.776 9.557-21.333 21.333-21.333zM213.333 746.667h85.333v-128h-85.333v128z" />
<glyph unicode="&#xe914;" glyph-name="thin-0021_calendar_month_day_planner" d="M900.267 960h-776.533c-67.072 0-123.733-56.661-123.733-123.733v-776.533c0-67.072 56.661-123.733 123.733-123.733h776.533c67.072 0 123.733 56.661 123.733 123.691v776.576c0 67.072-56.661 123.733-123.733 123.733zM123.733 917.333h776.533c43.947 0 81.067-37.12 81.067-81.067v-132.267h-938.667v132.267c0 43.947 37.12 81.067 81.067 81.067zM900.267-21.333h-776.533c-43.947 0-81.067 37.12-81.067 81.067v601.6h938.667v-601.6c0-43.947-37.12-81.067-81.067-81.067zM320 785.067h4.267c11.776 0 21.333 9.557 21.333 21.333s-9.557 21.333-21.333 21.333h-4.267c-11.776 0-21.333-9.515-21.333-21.333s9.557-21.333 21.333-21.333zM704 785.067c11.776 0 21.333 9.557 21.333 21.333s-9.557 21.333-21.333 21.333h-4.267c-11.776 0-19.2-9.557-19.2-21.333s11.691-21.333 23.467-21.333zM696.405 531.968l-89.6-34.133c-11.051-4.224-16.555-16.512-12.331-27.563 4.181-11.008 16.555-16.512 27.52-12.331l60.672 23.125v-348.8c0-11.776 9.557-21.333 21.333-21.333s21.333 9.557 21.333 21.333v379.733c0 7.040-3.456 13.568-9.259 17.579-5.76 4.011-13.141 4.821-19.669 2.389zM406.357 348.416l122.197 150.144c5.205 6.357 6.229 15.189 2.731 22.613-3.541 7.424-11.051 12.16-19.285 12.16h-226.133c-11.776 0-21.333-9.557-21.333-21.333s9.557-21.333 21.333-21.333h181.248l-121.003-148.651c-5.376-6.613-6.315-15.787-2.347-23.339 3.925-7.595 11.989-12.629 20.523-11.392 21.376 1.408 82.688-0.768 111.232-31.061 13.739-14.549 18.773-34.219 15.317-60.075-6.187-46.421-38.187-61.995-63.915-66.859-52.224-9.899-118.613 15.403-139.52 53.077-5.717 10.24-18.688 13.952-29.013 8.277-10.325-5.76-14.037-18.688-8.277-29.056 25.387-45.696 90.667-77.184 152.96-77.184 10.752 0.043 21.419 0.939 31.787 2.901 55.125 10.453 90.88 48.043 98.261 103.125 5.205 38.955-3.755 70.912-26.624 95.104-27.093 28.757-68.395 39.253-100.139 42.88z" />
<glyph unicode="&#xe915;" glyph-name="thin-0022_calendar_month_day_planner" d="M900.267 960h-776.533c-67.072 0-123.733-56.661-123.733-123.733v-776.533c0-67.072 56.661-123.733 123.733-123.733h776.533c67.072 0 123.733 56.661 123.733 123.691v776.576c0 67.072-56.661 123.733-123.733 123.733zM123.733 917.333h776.533c43.947 0 81.067-37.12 81.067-81.067v-132.267h-938.667v132.267c0 43.947 37.12 81.067 81.067 81.067zM900.267-21.333h-776.533c-43.947 0-81.067 37.12-81.067 81.067v601.6h938.667v-601.6c0-43.947-37.12-81.067-81.067-81.067zM320 785.067h4.267c11.776 0 21.333 9.557 21.333 21.333s-9.557 21.333-21.333 21.333h-4.267c-11.776 0-21.333-9.515-21.333-21.333s9.557-21.333 21.333-21.333zM704 785.067c11.776 0 21.333 9.557 21.333 21.333s-9.557 21.333-21.333 21.333h-4.267c-11.776 0-19.2-9.557-19.2-21.333s11.691-21.333 23.467-21.333zM315.733 499.2c-11.776 0-21.333-9.557-21.333-21.333v-204.8c0-2.859-0.597-70.656-52.608-76.843-48.64-3.072-68.352 33.835-69.12 35.2-5.291 10.496-18.091 14.848-28.629 9.557s-14.805-18.091-9.557-28.629c1.237-2.517 30.293-58.923 101.803-58.923 3.072 0 6.187 0.085 9.387 0.341 72.277 8.491 91.392 81.749 91.392 119.296v204.8c0 11.776-9.557 21.333-21.333 21.333zM555.52 393.301c-33.195 25.003-83.243 25.728-148.821 2.261-11.093-4.011-16.853-16.213-12.885-27.307s16.213-16.725 27.307-12.885c50.261 18.091 87.808 19.456 108.501 4.053 17.536-13.099 20.395-36.437 20.779-46.848-40.32 7.723-113.707 15.915-151.595-16.853-12.928-11.179-27.477-32-23.168-67.883 5.973-49.707 39.381-79.104 89.685-79.104 1.024 0 2.091 0 3.115 0.043 27.989 0.683 58.283 10.539 82.005 26.411v-0.256c0-11.776 9.557-21.333 21.333-21.333s21.333 9.557 21.333 21.333l-0.043 130.859c0.128 2.304 3.243 56.704-37.547 87.509zM467.413 191.445c-46.080 0.256-48.171 31.019-49.451 41.515-2.219 18.645 3.883 26.283 8.704 30.421 22.443 19.413 82.176 14.592 123.776 5.675v-28.8c-1.749-20.139-42.88-47.872-83.029-48.811zM750.933 409.6c-31.403 0-54.912-10.112-72.491-24.107v7.040c0 11.776-9.557 21.333-21.333 21.333s-21.333-9.557-21.333-21.333v-217.6c0-11.776 9.557-21.333 21.333-21.333s21.333 9.557 21.333 21.333v134.4c1.963 9.472 14.677 57.6 72.491 57.6 56.107 0 59.605-46.336 59.733-55.467v-136.533c0-11.776 9.557-21.333 21.333-21.333s21.333 9.557 21.333 21.333v136.533c0 27.307-18.432 98.133-102.4 98.133z" />
<glyph unicode="&#xe916;" glyph-name="thin-0023_calendar_month_day_planner_events" d="M1002.667 704h-267.008l-154.539 144.555c4.139 9.344 6.485 19.584 6.485 30.421 0 41.685-33.92 75.605-75.605 75.605s-75.605-33.92-75.605-75.605c0-12.8 3.499-24.661 9.088-35.2l-157.099-139.776h-267.051c-11.776 0-21.333-9.515-21.333-21.333v-725.333c0-11.776 9.557-21.333 21.333-21.333h981.333c11.776 0 21.333 9.557 21.333 21.333v725.333c0 11.819-9.557 21.333-21.333 21.333zM512 911.915c18.176 0 32.939-14.763 32.939-32.939s-14.763-32.939-32.939-32.939-32.939 14.805-32.939 32.939 14.763 32.939 32.939 32.939zM475.349 813.227c10.923-6.101 23.296-9.856 36.651-9.856 15.36 0 29.611 4.651 41.557 12.544l119.637-111.915h-320.64l122.795 109.227zM981.333 661.333v-85.333h-938.667v85.333h938.667zM42.667-21.333v554.667h938.667v-554.667h-938.667zM234.325 108.8h-39.893c-11.776 0-21.333-9.557-21.333-21.333s9.557-21.333 21.333-21.333h39.893c11.776 0 21.333 9.557 21.333 21.333s-9.557 21.333-21.333 21.333zM364.117 108.8h-39.893c-11.776 0-21.333-9.557-21.333-21.333s9.557-21.333 21.333-21.333h39.893c11.776 0 21.333 9.557 21.333 21.333s-9.557 21.333-21.333 21.333zM489.344 108.8h-39.893c-11.776 0-21.333-9.557-21.333-21.333s9.557-21.333 21.333-21.333h39.893c11.776 0 21.333 9.557 21.333 21.333s-9.515 21.333-21.333 21.333zM617.387 108.8h-39.893c-11.776 0-21.333-9.557-21.333-21.333s9.557-21.333 21.333-21.333h39.893c11.776 0 21.333 9.557 21.333 21.333s-9.557 21.333-21.333 21.333zM234.325 194.133h-39.893c-11.776 0-21.333-9.557-21.333-21.333s9.557-21.333 21.333-21.333h39.893c11.776 0 21.333 9.557 21.333 21.333s-9.557 21.333-21.333 21.333zM364.117 194.133h-39.893c-11.776 0-21.333-9.557-21.333-21.333s9.557-21.333 21.333-21.333h39.893c11.776 0 21.333 9.557 21.333 21.333s-9.557 21.333-21.333 21.333zM489.344 194.133h-39.893c-11.776 0-21.333-9.557-21.333-21.333s9.557-21.333 21.333-21.333h39.893c11.776 0 21.333 9.557 21.333 21.333s-9.515 21.333-21.333 21.333zM617.387 194.133h-39.893c-11.776 0-21.333-9.557-21.333-21.333s9.557-21.333 21.333-21.333h39.893c11.776 0 21.333 9.557 21.333 21.333s-9.557 21.333-21.333 21.333zM745.387 194.133h-39.893c-11.776 0-21.333-9.557-21.333-21.333s9.557-21.333 21.333-21.333h39.893c11.776 0 21.333 9.557 21.333 21.333s-9.557 21.333-21.333 21.333zM873.429 194.133h-39.936c-11.776 0-21.333-9.557-21.333-21.333s9.557-21.333 21.333-21.333h39.936c11.776 0 21.333 9.557 21.333 21.333s-9.557 21.333-21.333 21.333zM234.325 279.467h-39.893c-11.776 0-21.333-9.557-21.333-21.333s9.557-21.333 21.333-21.333h39.893c11.776 0 21.333 9.557 21.333 21.333s-9.557 21.333-21.333 21.333zM364.117 279.467h-39.893c-11.776 0-21.333-9.557-21.333-21.333s9.557-21.333 21.333-21.333h39.893c11.776 0 21.333 9.557 21.333 21.333s-9.557 21.333-21.333 21.333zM489.344 279.467h-39.893c-11.776 0-21.333-9.557-21.333-21.333s9.557-21.333 21.333-21.333h39.893c11.776 0 21.333 9.557 21.333 21.333s-9.515 21.333-21.333 21.333zM617.387 279.467h-39.893c-11.776 0-21.333-9.557-21.333-21.333s9.557-21.333 21.333-21.333h39.893c11.776 0 21.333 9.557 21.333 21.333s-9.557 21.333-21.333 21.333zM745.387 279.467h-39.893c-11.776 0-21.333-9.557-21.333-21.333s9.557-21.333 21.333-21.333h39.893c11.776 0 21.333 9.557 21.333 21.333s-9.557 21.333-21.333 21.333zM873.429 279.467h-39.936c-11.776 0-21.333-9.557-21.333-21.333s9.557-21.333 21.333-21.333h39.936c11.776 0 21.333 9.557 21.333 21.333s-9.557 21.333-21.333 21.333zM234.325 364.843h-39.893c-11.776 0-21.333-9.557-21.333-21.333s9.557-21.333 21.333-21.333h39.893c11.776 0 21.333 9.557 21.333 21.333s-9.557 21.333-21.333 21.333zM364.117 364.843h-39.893c-11.776 0-21.333-9.557-21.333-21.333s9.557-21.333 21.333-21.333h39.893c11.776 0 21.333 9.557 21.333 21.333s-9.557 21.333-21.333 21.333zM489.344 364.843h-39.893c-11.776 0-21.333-9.557-21.333-21.333s9.557-21.333 21.333-21.333h39.893c11.776 0 21.333 9.557 21.333 21.333s-9.515 21.333-21.333 21.333zM617.387 364.843h-39.893c-11.776 0-21.333-9.557-21.333-21.333s9.557-21.333 21.333-21.333h39.893c11.776 0 21.333 9.557 21.333 21.333s-9.557 21.333-21.333 21.333zM745.387 364.843h-39.893c-11.776 0-21.333-9.557-21.333-21.333s9.557-21.333 21.333-21.333h39.893c11.776 0 21.333 9.557 21.333 21.333s-9.557 21.333-21.333 21.333zM873.429 364.843h-39.936c-11.776 0-21.333-9.557-21.333-21.333s9.557-21.333 21.333-21.333h39.936c11.776 0 21.333 9.557 21.333 21.333s-9.557 21.333-21.333 21.333zM617.387 450.176h-39.893c-11.776 0-21.333-9.557-21.333-21.333s9.557-21.333 21.333-21.333h39.893c11.776 0 21.333 9.557 21.333 21.333s-9.557 21.333-21.333 21.333zM745.387 450.176h-39.893c-11.776 0-21.333-9.557-21.333-21.333s9.557-21.333 21.333-21.333h39.893c11.776 0 21.333 9.557 21.333 21.333s-9.557 21.333-21.333 21.333zM873.429 450.176h-39.936c-11.776 0-21.333-9.557-21.333-21.333s9.557-21.333 21.333-21.333h39.936c11.776 0 21.333 9.557 21.333 21.333s-9.557 21.333-21.333 21.333z" />
<glyph unicode="&#xe917;" glyph-name="thin-0024_calendar_month_day_planner_events" d="M900.565 960h-783.787c-67.669 0-116.779-49.621-116.779-117.973v-786.347c0-69.333 49.109-119.68 116.779-119.68h783.787c69.205 0 123.435 52.608 123.435 119.68v786.347c0 67.243-53.035 117.973-123.435 117.973zM116.779 917.333h783.787c46.080 0 80.768-32.384 80.768-75.307v-180.693h-938.667v180.693c0 45.056 29.781 75.307 74.112 75.307zM426.667 320v128h170.667v-128h-170.667zM597.333 277.333v-128h-170.667v128h170.667zM384 320h-170.667v128h170.667v-128zM640 448h170.667v-128h-170.667v128zM640 490.667v128h170.667v-128h-170.667zM597.333 490.667h-170.667v128h170.667v-128zM384 490.667h-170.667v128h170.667v-128zM170.667 490.667h-128v128h128v-128zM170.667 448v-128h-128v128h128zM170.667 277.333v-128h-128v128h128zM213.333 277.333h170.667v-128h-170.667v128zM384 106.667v-128h-170.667v128h170.667zM426.667 106.667h170.667v-128h-170.667v128zM640 106.667h170.667v-128h-170.667v128zM640 149.333v128h170.667v-128h-170.667zM853.333 277.333h128v-128h-128v128zM853.333 320v128h128v-128h-128zM853.333 490.667v128h128v-128h-128zM42.667 55.68v50.987h128v-128h-53.888c-43.648 0-74.112 31.659-74.112 77.013zM900.565-21.333h-47.232v128h128v-50.987c0-43.904-34.688-77.013-80.768-77.013zM326.059 751.061c31.36 0 56.875 25.515 56.875 56.875 0 31.317-25.515 56.832-56.875 56.832-31.317 0-56.832-25.515-56.832-56.832 0-31.36 25.472-56.875 56.832-56.875zM326.059 822.101c7.851 0 14.208-6.357 14.208-14.165 0-7.851-6.357-14.208-14.208-14.208-7.808 0-14.165 6.357-14.165 14.208 0 7.808 6.315 14.165 14.165 14.165zM697.941 751.061c31.317 0 56.832 25.515 56.832 56.875 0 31.317-25.515 56.832-56.832 56.832s-56.832-25.515-56.832-56.832c0-31.36 25.515-56.875 56.832-56.875zM697.941 822.101c7.808 0 14.165-6.357 14.165-14.165 0-7.851-6.357-14.208-14.165-14.208s-14.165 6.357-14.165 14.208c0 7.808 6.4 14.165 14.165 14.165z" />
<glyph unicode="&#xe918;" glyph-name="thin-0025_alarm_clock_ringer_time_morning" d="M533.12 680.491c-11.776 0-21.333-9.557-21.333-21.333v-266.795l-161.749-114.176c-9.643-6.784-11.904-20.096-5.12-29.696 4.181-5.931 10.752-9.045 17.451-9.045 4.267 0 8.533 1.237 12.288 3.925l170.795 120.576c5.632 4.011 9.003 10.496 9.003 17.408v277.803c0 11.819-9.557 21.333-21.333 21.333zM891.52 400c0 209.536-170.453 379.989-379.947 379.989-209.536 0-379.989-170.453-379.989-379.989 0-119.723 55.808-226.517 142.635-296.235l-76.416-130.603c-5.931-10.155-2.517-23.253 7.637-29.227 3.371-1.963 7.083-2.901 10.752-2.901 7.339 0 14.464 3.797 18.432 10.539l74.581 127.403c58.667-37.12 127.957-58.965 202.411-58.965 74.411 0 143.659 21.803 202.325 58.923l74.539-127.403c3.968-6.741 11.136-10.539 18.432-10.539 3.669 0 7.381 0.939 10.795 2.901 10.155 5.973 13.568 18.987 7.637 29.227l-76.416 130.56c86.741 69.76 142.592 176.597 142.592 296.32zM511.531 62.72c-185.984 0-337.323 151.296-337.323 337.28s151.296 337.323 337.323 337.323 337.28-151.296 337.28-337.323-151.253-337.28-337.28-337.28zM159.104 701.568c3.627 0 7.296 0.896 10.667 2.859l238.379 137.643c4.864 2.816 8.448 7.467 9.899 12.928s0.725 11.307-2.133 16.171c-43.861 75.947-141.227 102.016-217.131 58.197-36.779-21.248-63.061-55.509-74.069-96.512-10.965-41.045-5.333-83.883 15.872-120.619 3.968-6.869 11.136-10.667 18.517-10.667zM165.931 821.803c8.021 29.995 27.307 55.083 54.187 70.613 18.261 10.539 38.229 15.573 57.941 15.573 33.408 0 66.091-14.379 88.533-40.619l-198.059-114.347c-7.765 21.931-8.747 45.739-2.603 68.779zM615.893 842.027l238.379-137.643c3.285-1.877 6.955-2.859 10.667-2.859 1.835 0 3.712 0.256 5.547 0.725 5.461 1.451 10.112 5.035 12.928 9.941 21.248 36.779 26.88 79.616 15.915 120.619-11.008 41.003-37.291 75.307-74.069 96.512-75.947 43.819-173.355 17.749-217.131-58.197-2.816-4.907-3.627-10.709-2.176-16.171 1.451-5.419 4.992-10.069 9.941-12.928zM803.883 892.416c49.195-28.416 69.845-87.637 51.541-139.392l-198.059 114.347c35.712 41.643 97.323 53.461 146.517 25.045z" />
<glyph unicode="&#xe919;" glyph-name="thin-0026_time_watch_clock" d="M744.235 448.213h-232.021v360.491c0 11.776-9.557 21.333-21.333 21.333s-21.333-9.557-21.333-21.333v-381.824c0-11.776 9.557-21.333 21.333-21.333h253.355c11.776 0 21.333 9.557 21.333 21.333s-9.515 21.333-21.333 21.333zM512 949.376c-276.48 0-501.419-224.939-501.419-501.419s224.939-501.419 501.419-501.419c276.48 0 501.419 224.896 501.419 501.376s-224.939 501.461-501.419 501.461zM512-10.795c-252.971 0-458.752 205.781-458.752 458.709 0 252.971 205.781 458.795 458.752 458.795s458.752-205.781 458.752-458.752c0-252.928-205.781-458.752-458.752-458.752z" />
<glyph unicode="&#xe91a;" glyph-name="thin-0027_stopwatch_timer_running_time" d="M951.125 740.011l-62.763 63.573c-6.101 6.357-14.891 9.131-24.277 7.808-6.699-1.109-13.141-4.523-17.92-9.515l-54.059-54.741c-15.189-15.573-2.261-29.227 17.365-49.877 10.709-11.264 24.32-25.131 35.499-36.011 5.76-5.589 10.837-10.453 14.592-13.824 8.405-7.595 15.488-10.325 21.333-10.325 6.144 0 10.837 2.987 14.293 6.485l54.016 54.741c4.949 5.077 8.192 11.435 9.173 17.664 1.536 9.173-1.109 17.963-7.253 24.021zM878.891 687.787c-12.544 12.117-30.891 30.72-42.667 43.264l31.915 32.341 42.667-43.221-31.915-32.384zM687.573 568.021l-208.512-214.443c-8.192-8.448-8.021-21.973 0.427-30.165 4.139-4.053 9.515-6.059 14.891-6.059 5.547 0 11.093 2.176 15.275 6.443l208.512 214.443c8.192 8.448 8.021 21.973-0.427 30.165s-21.931 8.021-30.165-0.384zM597.333 760.235v29.099h21.333c11.776 0 21.333 9.557 21.333 21.333v106.667c0 23.509-19.115 42.667-42.667 42.667h-170.667c-23.509 0-42.667-19.115-42.667-42.667v-106.667c0-11.776 9.557-21.333 21.333-21.333h21.333v-30.080c-183.467-40.576-321.323-206.208-321.323-403.968 0-228.096 183.253-413.653 408.491-413.653s408.491 185.6 408.491 413.653c-0.043 199.125-139.691 365.781-324.992 404.949zM448 832h-21.333v85.333h170.667v-85.333h-21.333c-11.776 0-21.333-9.515-21.333-21.333v-43.776c-13.44 1.365-27.051 2.091-40.875 2.091-15.061 0-29.867-0.939-44.459-2.56v44.245c0 11.819-9.557 21.333-21.333 21.333zM513.792-15.701c-201.728 0-365.824 166.4-365.824 370.987s164.096 371.029 365.824 371.029c201.728 0 365.824-166.443 365.824-371.029s-164.053-370.987-365.824-370.987z" />
<glyph unicode="&#xe91b;" glyph-name="thin-0028_time_watch_clock_wall" d="M1002.667 960h-981.333c-11.776 0-21.333-9.515-21.333-21.333v-981.333c0-11.776 9.557-21.333 21.333-21.333h981.333c11.776 0 21.333 9.557 21.333 21.333v981.333c0 11.819-9.557 21.333-21.333 21.333zM981.333-21.333h-938.667v938.667h938.667v-938.667zM511.189 415.787c4.096-4.053 9.557-6.187 15.061-6.187 3.627 0 7.253 0.896 10.581 2.816l150.016 85.717c10.24 5.845 13.781 18.859 7.979 29.099-5.931 10.283-19.029 13.781-29.141 7.936l-135.893-77.653-235.307 233.728c-8.363 8.235-21.803 8.235-30.208-0.128-8.277-8.363-8.235-21.845 0.128-30.165l246.784-245.163zM809.728 454.613c0-31.061 25.301-56.32 56.32-56.32s56.32 25.259 56.32 56.32c0 31.061-25.301 56.32-56.32 56.32s-56.32-25.259-56.32-56.32zM866.048 468.267c7.552 0 13.653-6.144 13.653-13.653s-6.144-13.653-13.653-13.653-13.653 6.144-13.653 13.653c0 7.509 6.101 13.653 13.653 13.653zM157.995 398.293c31.061 0 56.32 25.259 56.32 56.32s-25.259 56.32-56.32 56.32c-31.061 0-56.32-25.259-56.32-56.32-0.043-31.061 25.259-56.32 56.32-56.32zM157.995 468.267c7.509 0 13.653-6.144 13.653-13.653s-6.144-13.653-13.653-13.653c-7.552 0-13.653 6.144-13.653 13.653-0.043 7.509 6.101 13.653 13.653 13.653zM511.659 750.677c31.061 0 56.32 25.259 56.32 56.32s-25.259 56.32-56.32 56.32c-31.061 0-56.32-25.259-56.32-56.32s25.259-56.32 56.32-56.32zM511.659 820.693c7.509 0 13.653-6.144 13.653-13.653s-6.144-13.653-13.653-13.653c-7.552 0-13.653 6.144-13.653 13.653s6.101 13.653 13.653 13.653zM511.659 155.947c-31.061 0-56.32-25.301-56.32-56.32s25.259-56.32 56.32-56.32c31.061 0 56.32 25.301 56.32 56.32s-25.301 56.32-56.32 56.32zM511.659 85.931c-7.552 0-13.653 6.144-13.653 13.653s6.144 13.653 13.653 13.653c7.509 0 13.653-6.144 13.653-13.653s-6.144-13.653-13.653-13.653zM332.373 737.28c5.547 0 11.093 2.56 15.36 6.4 3.84 4.267 5.973 9.813 5.973 14.933 0 5.547-2.133 11.093-5.973 15.36-8.107 8.107-23.040 7.68-30.293 0-3.84-3.84-6.4-9.387-6.4-15.36 0-5.547 2.56-11.093 6.4-14.507 3.84-4.267 9.387-6.827 14.933-6.827zM317.44 162.56c-3.84-3.84-6.4-9.387-6.4-14.933 0-5.973 2.56-11.093 6.4-14.933 3.84-4.309 9.387-6.4 14.933-6.4s11.093 2.133 15.36 6.4c3.84 3.84 5.973 9.387 5.973 14.933s-2.133 11.093-5.973 14.933c-8.107 8.107-23.040 7.68-30.293 0zM687.317 739.413c5.589 0 11.136 2.133 15.36 6.4 3.84 3.84 5.973 9.387 5.973 14.933s-2.133 11.093-6.357 15.36c-8.107 7.68-22.229 7.68-29.867-0.427-4.267-3.84-6.4-9.387-6.4-14.933s2.176-11.093 6.016-14.933c4.224-4.267 9.728-6.4 15.275-6.4zM672 160.427c-3.84-3.84-6.016-9.387-6.016-14.933s2.176-11.093 6.4-14.976c3.84-4.267 9.387-6.357 14.933-6.357 5.589 0 11.136 2.133 15.36 6.357 3.84 4.309 5.973 9.813 5.973 14.976 0 5.547-2.133 11.093-6.357 15.317-7.68 7.723-21.76 7.723-30.293-0.384zM817.92 610.133c5.547 0 11.093 2.133 15.36 6.4 3.84 4.267 6.357 9.387 6.357 14.933s-2.56 11.093-6.357 14.933c-8.107 8.107-22.613 8.107-30.336 0.427-3.84-3.84-5.973-9.813-5.973-15.36s2.133-11.093 5.973-14.933c3.883-4.267 9.429-6.4 14.976-6.4zM817.92 253.013c5.547 0 11.093 2.133 15.36 6.4 4.267 3.84 6.357 9.387 6.357 14.933s-2.56 10.667-6.357 14.976c-8.107 8.064-22.613 7.68-30.336 0-3.84-3.883-5.973-9.429-5.973-14.976 0-5.973 2.133-11.093 5.973-15.317 4.309-3.883 9.429-6.016 14.976-6.016zM203.093 606.72c5.547 0 11.093 2.56 15.36 6.4 3.84 4.267 5.973 9.387 5.973 14.933s-2.133 11.093-6.4 15.36c-8.107 7.68-21.333 8.107-30.293-0.427-3.84-3.84-5.973-9.387-5.973-14.933s2.133-10.667 6.4-15.36c4.267-3.84 9.387-5.973 14.933-5.973zM187.733 292.267c-3.84-3.84-5.973-9.387-5.973-14.933s2.133-10.667 6.4-14.933c4.267-4.309 9.813-6.4 14.933-6.4 5.547 0 11.093 2.56 15.36 6.4 3.84 4.267 5.973 9.387 5.973 14.933s-2.133 11.093-5.973 15.36c-8.107 7.68-22.613 7.68-30.72-0.427z" />
<glyph unicode="&#xe91c;" glyph-name="thin-0029_time_watch_clock_wall" d="M512 949.419c-276.48 0-501.461-224.939-501.461-501.461 0-276.48 224.939-501.419 501.461-501.419s501.461 224.939 501.461 501.419c0 276.48-224.981 501.461-501.461 501.461zM512-10.837c-252.971 0-458.795 205.781-458.795 458.752s205.824 458.837 458.795 458.837c252.971 0 458.795-205.824 458.795-458.795s-205.824-458.795-458.795-458.795zM526.123 409.771c3.627 0 7.253 0.896 10.581 2.816l148.523 84.864c10.24 5.845 13.781 18.859 7.979 29.099-5.931 10.283-19.029 13.781-29.141 7.936l-134.4-76.8-232.832 231.253c-8.363 8.32-21.888 8.235-30.165-0.085-8.32-8.363-8.277-21.845 0.043-30.165l244.352-242.731c4.096-4.053 9.557-6.187 15.061-6.187zM862.507 510.507c-30.891 0-55.979-25.088-55.979-55.979s25.131-55.979 55.979-55.979 55.979 25.088 55.979 55.979-25.131 55.979-55.979 55.979zM862.507 441.216c-7.339 0-13.312 5.973-13.312 13.312s6.016 13.312 13.312 13.312 13.312-5.973 13.312-13.312-5.973-13.312-13.312-13.312zM217.472 454.528c0 30.891-25.088 55.979-55.979 55.979-30.848 0-55.979-25.088-55.979-55.979s25.088-55.979 55.979-55.979c30.891 0 55.979 25.088 55.979 55.979zM161.493 441.216c-7.339 0-13.312 5.973-13.312 13.312s5.973 13.312 13.312 13.312 13.312-5.973 13.312-13.312-5.973-13.312-13.312-13.312zM511.659 747.435c30.891 0 55.979 25.088 55.979 55.979s-25.088 55.979-55.979 55.979-55.979-25.088-55.979-55.979 25.088-55.979 55.979-55.979zM511.659 816.725c7.339 0 13.312-5.973 13.312-13.312s-5.973-13.312-13.312-13.312-13.312 5.973-13.312 13.312 5.973 13.312 13.312 13.312zM511.659 159.061c-30.891 0-55.979-25.088-55.979-55.979s25.088-55.979 55.979-55.979 55.979 25.131 55.979 55.979-25.131 55.979-55.979 55.979zM511.659 89.771c-7.339 0-13.312 6.016-13.312 13.312s5.973 13.312 13.312 13.312 13.312-5.973 13.312-13.312-5.973-13.312-13.312-13.312zM334.507 734.293c5.547 0 11.093 2.133 14.933 6.4s5.973 9.387 5.973 14.933-2.133 10.667-5.973 14.933c-8.107 8.107-22.187 8.107-30.293 0-4.267-3.84-6.4-9.387-6.4-14.933s2.133-10.667 6.4-14.933c3.84-4.267 9.387-6.4 15.36-6.4zM319.147 165.973c-3.84-4.267-5.973-9.771-5.973-15.317s2.133-11.136 6.4-15.36c3.84-3.84 9.387-5.973 14.507-5.973 5.547 0 11.093 2.133 15.36 6.357 3.84 3.84 6.4 9.429 6.4 14.976s-2.56 11.093-6.4 14.933c-8.107 8.107-22.187 8.107-30.293 0.384zM670.293 772.693c-3.84-3.84-6.016-9.387-6.016-14.933 0-5.973 2.176-11.093 6.4-15.36 3.84-3.84 9.387-5.973 14.933-5.973 5.589 0 10.667 2.133 15.36 6.4 3.84 3.84 5.973 9.387 5.973 14.933s-2.133 10.667-6.357 14.933c-8.149 8.107-22.229 8.107-30.293 0zM670.293 163.413c-3.84-3.84-6.016-9.387-6.016-14.976 0-5.077 2.176-10.667 6.4-15.317 4.267-3.84 9.387-6.016 14.933-6.016 5.589 0 11.136 2.603 14.976 6.4s6.357 9.387 6.357 14.933c0 6.016-2.133 11.563-6.357 15.36-7.68 7.723-21.333 8.576-30.293-0.384zM814.933 608.427c5.547 0 11.093 2.133 15.36 6.4 3.84 3.84 5.973 9.387 5.973 14.933s-2.133 11.093-5.973 14.933c-8.107 8.107-22.613 8.107-30.293 0-3.84-3.84-6.4-9.387-6.4-14.933s2.133-11.093 6.4-15.36c4.267-3.84 9.387-5.973 14.933-5.973zM800 291.029c-3.84-3.883-6.4-9.429-6.4-14.976s2.603-11.093 6.4-15.317c4.267-3.883 9.387-6.016 14.933-6.016s11.093 2.133 15.36 6.4c3.84 3.84 5.973 9.387 5.973 14.933s-2.133 10.667-6.357 14.976c-7.723 7.637-21.845 8.064-29.909 0zM191.147 641.28c-3.84-3.84-6.4-9.387-6.4-14.933s2.56-11.093 6.4-15.36c4.267-3.84 9.813-5.973 14.933-5.973 5.547 0 11.093 2.133 15.36 6.4 3.84 3.84 5.973 9.387 5.973 14.933s-2.133 11.093-6.4 15.36c-8.107 7.68-21.333 8.107-29.867-0.427zM191.147 294.443c-3.84-3.883-6.4-9.429-6.4-15.36 0-5.547 2.56-10.667 6.827-15.36 3.84-3.84 9.387-5.973 14.507-5.973 5.547 0 11.093 2.133 15.36 6.357 3.84 4.309 5.973 9.429 5.973 14.976s-2.133 11.093-5.973 15.36c-8.107 7.637-22.187 7.637-30.293 0z" />
<glyph unicode="&#xe91d;" glyph-name="thin-0030_wrist_watch_clock_time" d="M659.243 448h-147.243v232.448c0 11.776-9.557 21.333-21.333 21.333s-21.333-9.557-21.333-21.333v-253.781c0-11.776 9.557-21.333 21.333-21.333h168.576c11.776 0 21.333 9.557 21.333 21.333s-9.515 21.333-21.333 21.333zM512.085 794.88c-191.061 0-346.496-155.435-346.496-346.496s155.435-346.496 346.496-346.496c191.061 0 346.496 155.435 346.496 346.496s-155.435 346.496-346.496 346.496zM512.085 144.555c-167.509 0-303.829 136.277-303.829 303.829s136.277 303.829 303.829 303.829 303.829-136.277 303.829-303.829c0-167.552-136.277-303.829-303.829-303.829zM729.856 117.12c-11.392 2.133-22.741-5.291-25.003-16.896l-23.424-121.557h-344.491l-23.467 122.581c-2.219 11.605-13.483 19.157-24.96 16.939-11.563-2.219-19.157-13.397-16.939-24.96l26.795-139.904c1.92-10.069 10.709-17.323 20.907-17.323h379.733c10.197 0 18.987 7.253 20.949 17.28l26.795 138.837c2.261 11.605-5.291 22.784-16.896 25.003zM288.597 773.845c11.733-2.091 22.741 5.504 24.875 17.067l23.552 126.421h344.277l23.595-127.403c1.877-10.283 10.837-17.451 20.907-17.451 1.28 0 2.645 0.085 3.925 0.341 11.563 2.133 19.243 13.269 17.067 24.875l-26.795 144.896c-1.835 10.069-10.667 17.408-20.949 17.408h-379.733c-10.283 0-19.115-7.339-20.992-17.408l-26.795-143.829c-2.176-11.605 5.504-22.741 17.067-24.917zM960 533.333h-43.819c-11.776 0-21.333-9.557-21.333-21.333s9.557-21.333 21.333-21.333h22.485v-128h-22.485c-11.776 0-21.333-9.557-21.333-21.333s9.557-21.333 21.333-21.333h43.819c11.776 0 21.333 9.557 21.333 21.333v170.667c0 11.819-9.557 21.333-21.333 21.333z" />
<glyph unicode="&#xe91e;" glyph-name="thin-0031_pin_bookmark" d="M1000.661 650.837l-285.824 285.867c-10.24 10.24-23.467 15.104-36.779 13.739-13.781-1.365-26.325-9.131-34.987-22.144-26.325-43.819-32.939-100.651-18.56-154.368l-168.277-172.075c-120.96 55.083-253.525 40.619-334.763-40.619-7.168-7.168-14.805-20.907-14.805-32.171 0-17.451 9.643-27.008 14.72-32.085l203.733-205.696-310.315-310.315c-8.32-8.32-8.32-21.845 0-30.165 4.139-4.181 9.6-6.272 15.061-6.272s10.923 2.091 15.104 6.229l310.187 310.187 205.696-207.701c0.043-0.043 0.043-0.043 0.085-0.085 8.021-8.021 19.755-12.672 32.171-12.672 12.373 0 24.064 4.608 32.128 12.672 81.28 81.28 96.64 211.413 40.533 334.976l172.331 172.331c53.717-14.336 110.549-7.595 155.093 19.157 12.16 8.107 19.925 20.651 21.291 34.475 1.323 13.44-3.627 26.496-13.824 36.736zM970.368 615.637c-36.693-22.016-85.931-26.027-131.627-10.88-7.637 2.56-16.085 0.555-21.845-5.163l-192-192c-6.485-6.485-8.107-16.427-4.011-24.619 55.467-110.891 45.312-228.48-25.557-299.392-0.939-0.555-3.456-0.597-4.48-0.085l-441.771 442.965c0.341 1.195 1.792 3.755 2.56 4.608 71.552 71.595 190.848 80.213 299.605 25.856 8.277-4.181 18.347-2.475 24.789 4.181l187.733 192c5.589 5.717 7.509 14.080 4.992 21.675-15.232 45.653-11.221 94.848 10.837 131.584l-18.261 10.965 23.339-10.795 285.824-285.867c0 0-0.171-5.035-0.128-5.035z" />
<glyph unicode="&#xe91f;" glyph-name="thin-0032_flag" d="M889.088 861.611c-124.544 114.389-239.317 80-350.293 46.635-87.637-26.325-178.304-52.779-282.795-13.568v22.656c0 11.776-9.557 21.333-21.333 21.333s-21.333-9.515-21.333-21.333v-938.667c0-11.776 9.557-21.333 21.333-21.333s21.333 9.557 21.333 21.333v407.552c28.288-4.565 56.576-7.296 84.736-7.296 63.488 0 126.379 9.515 187.989 18.731 116.907 17.664 227.157 34.176 338.261-8.789 6.613-2.645 13.952-1.749 19.755 2.304 5.803 3.968 9.259 10.539 9.259 17.579v437.12c0 6.016-2.517 11.691-6.912 15.744zM853.333 438.699c-111.915 34.176-223.104 17.451-330.965 1.152-91.819-13.824-178.859-26.923-266.368-11.221v420.181c111.701-36.437 208.683-7.381 295.083 18.603 106.283 31.829 198.4 59.477 302.251-31.061v-397.653z" />
<glyph unicode="&#xe920;" glyph-name="thin-0033_search_find_zoom" d="M992.469 72.448l-261.12 261.12c43.477 63.317 69.077 139.819 69.077 222.251 0 217.045-176.597 393.643-393.6 393.643-217.045 0-393.643-176.597-393.643-393.643s176.597-393.643 393.643-393.643c82.432 0 158.976 25.6 222.251 69.077l261.12-261.12c13.653-13.653 31.829-21.205 51.115-21.205 0.043 0 0.043 0 0.043 0.043 19.328 0 37.461 7.509 51.072 21.163 28.245 28.203 28.245 74.069 0.043 102.315zM55.851 555.819c0 193.536 157.44 350.976 350.976 350.976s350.933-157.44 350.933-350.976c0-193.493-157.397-350.976-350.933-350.976s-350.976 157.44-350.976 350.976zM962.304 0.299c-5.589-5.589-13.013-8.661-20.907-8.661h-0.043c-7.936 0-15.317 3.072-20.949 8.661l-257.323 257.323c15.019 12.928 29.013 26.923 41.941 41.941l257.323-257.323c11.52-11.563 11.52-30.336-0.043-41.941zM431.744 833.323c-81.323 2.859-157.611-27.349-214.784-84.523-57.216-57.216-87.253-133.504-84.565-214.827 0.384-11.563 9.856-20.608 21.291-20.608 0.256 0 0.469 0 0.725 0 11.776 0.384 20.992 10.24 20.608 22.016-2.304 69.376 23.296 134.443 72.107 183.211 48.768 48.768 114.389 73.941 183.211 72.107 12.544-1.621 21.632 8.832 22.016 20.608 0.384 11.819-8.832 21.675-20.608 22.016z" />
<glyph unicode="&#xe921;" glyph-name="thin-0034_search_find_zoom" d="M511.573 944.725c-274.816 0-498.432-223.573-498.432-498.432 0-274.816 223.573-498.389 498.432-498.389s498.432 223.573 498.432 498.389c0 274.859-223.573 498.432-498.432 498.432zM511.573-9.387c-251.307 0-455.765 204.459-455.765 455.723s204.459 455.723 455.765 455.723c251.307 0 455.765-204.459 455.765-455.765 0-251.221-204.459-455.68-455.765-455.68zM573.056 416.341c24.021 30.549 38.955 68.523 38.955 110.293 0 98.944-80.512 179.456-179.456 179.456s-179.456-80.512-179.456-179.456c0-98.944 80.512-179.456 179.456-179.456 41.771 0 79.787 14.933 110.293 38.997l175.445-175.488c4.181-4.181 9.643-6.229 15.104-6.229s10.923 2.091 15.104 6.229c8.32 8.32 8.32 21.845 0 30.165l-175.445 175.488zM295.808 526.635c0 75.435 61.355 136.789 136.789 136.789s136.789-61.355 136.789-136.789-61.355-136.789-136.789-136.789-136.789 61.355-136.789 136.789z" />
<glyph unicode="&#xe922;" glyph-name="thin-0035_bookmark_tag" d="M789.333 960h-554.667c-11.776 0-21.333-9.515-21.333-21.333v-935.637c0-22.443 11.307-41.771 29.44-50.56 17.237-8.277 37.333-5.419 55.211 9.131l211.797 208.853 215.424-208.896c0.469-0.469 0.939-0.896 1.451-1.28 10.155-8.149 21.845-12.373 33.365-12.373 7.083 0 14.165 1.579 20.821 4.779 18.389 8.789 29.824 28.117 29.824 50.432v935.552c0 11.819-9.557 21.333-21.333 21.333zM768 3.115c0-6.869-2.944-10.709-5.504-11.947-2.944-1.365-6.101 0.171-8.405 1.877l-229.547 222.635c-8.363 8.021-21.632 8.021-29.824-0.128l-225.067-222.080c-1.92-1.451-5.589-3.755-8.405-2.475-2.603 1.28-5.248 5.461-5.248 12.075v914.261h512v-914.219z" />
<glyph unicode="&#xe923;" glyph-name="thin-0036_share_facebook_social" d="M790.997 573.44c-34.944 0-66.517-14.464-89.259-37.675l-333.099 234.069c7.296 15.872 11.648 33.365 11.648 51.925 0 69.077-56.192 125.269-125.269 125.269s-125.227-56.192-125.227-125.269c0-69.035 56.192-125.227 125.269-125.227 35.115 0 66.816 14.635 89.557 38.016l333.013-233.984c-7.424-16-11.861-33.621-11.861-52.395 0-19.285 4.736-37.333 12.544-53.675l-334.976-230.315c-22.656 22.571-53.888 36.523-88.32 36.523-69.077 0-125.269-56.149-125.269-125.227s56.192-125.269 125.269-125.269 125.269 56.149 125.269 125.269c0 19.285-4.736 37.333-12.544 53.675l334.976 230.315c22.656-22.571 53.888-36.565 88.277-36.565 69.077 0 125.269 56.149 125.269 125.269 0 69.077-56.192 125.269-125.269 125.269zM255.061 739.2c-45.525 0-82.603 37.035-82.603 82.56s37.035 82.603 82.603 82.603 82.56-37.035 82.56-82.603c0-45.483-37.035-82.56-82.56-82.56zM255.061-7.083c-45.525 0-82.603 37.035-82.603 82.603 0 45.483 37.035 82.56 82.603 82.56s82.603-37.035 82.603-82.56c-0.043-45.568-37.077-82.603-82.603-82.603zM790.997 365.611c-45.483 0-82.56 37.035-82.56 82.603s37.035 82.603 82.56 82.603c45.525 0 82.603-37.035 82.603-82.603s-37.077-82.603-82.603-82.603z" />
<glyph unicode="&#xe924;" glyph-name="thin-0037_smiley_happy_like_face" d="M732.715 319.147h-441.515c-7.339 0-14.208-3.797-18.091-10.027-3.925-6.229-4.309-14.037-1.067-20.608 43.477-89.173 137.685-146.773 239.957-146.773 102.229 0 196.437 57.643 239.915 146.773 3.243 6.571 2.816 14.421-1.067 20.608-3.925 6.229-10.752 10.027-18.133 10.027zM511.957 184.363c-73.6 0-142.165 35.243-183.211 92.117h366.421c-41.088-56.875-109.611-92.117-183.211-92.117zM511.744 950.827c-277.845 0-503.851-226.005-503.851-503.851s226.005-503.893 503.851-503.893 503.851 226.048 503.851 503.893c0 277.845-226.005 503.851-503.851 503.851zM511.744-14.251c-254.293 0-461.184 206.933-461.184 461.227s206.891 461.184 461.184 461.184 461.184-206.891 461.184-461.184c0-254.293-206.891-461.227-461.184-461.227zM364.885 448.256c57.557 0 104.363 46.848 104.363 104.405s-46.805 104.363-104.363 104.363-104.405-46.805-104.405-104.363 46.848-104.405 104.405-104.405zM364.885 614.357c34.005 0 61.696-27.691 61.696-61.696 0-34.048-27.691-61.739-61.696-61.739-34.048 0-61.739 27.691-61.739 61.739 0 34.005 27.691 61.696 61.739 61.696zM659.584 657.024c-57.557 0-104.363-46.805-104.363-104.363s46.848-104.405 104.363-104.405 104.363 46.848 104.363 104.405-46.805 104.363-104.363 104.363zM659.584 490.923c-34.048 0-61.696 27.691-61.696 61.739 0 34.005 27.648 61.696 61.696 61.696s61.696-27.691 61.696-61.696c0-34.048-27.648-61.739-61.696-61.739z" />
<glyph unicode="&#xe925;" glyph-name="thin-0038_smiley_neutral_face" d="M511.957 950.827c-277.845 0-503.851-226.005-503.851-503.851s226.005-503.893 503.851-503.893 503.851 226.048 503.851 503.893c0 277.845-226.005 503.851-503.851 503.851zM511.957-14.251c-254.293 0-461.184 206.933-461.184 461.227s206.891 461.184 461.184 461.184 461.184-206.891 461.184-461.184c0-254.293-206.891-461.227-461.184-461.227zM469.461 552.661c0 57.557-46.805 104.363-104.363 104.363s-104.405-46.805-104.405-104.363 46.848-104.405 104.405-104.405 104.363 46.848 104.363 104.405zM303.36 552.661c0 34.005 27.691 61.696 61.739 61.696 34.005 0 61.696-27.691 61.696-61.696 0-34.048-27.691-61.739-61.696-61.739-34.048 0-61.739 27.691-61.739 61.739zM659.797 657.024c-57.557 0-104.363-46.805-104.363-104.363s46.848-104.405 104.363-104.405 104.363 46.848 104.363 104.405-46.848 104.363-104.363 104.363zM659.797 490.923c-34.048 0-61.696 27.691-61.696 61.739 0 34.005 27.648 61.696 61.696 61.696s61.696-27.691 61.696-61.696c0-34.048-27.648-61.739-61.696-61.739zM649.387 278.187h-274.859c-11.776 0-21.333-9.557-21.333-21.333s9.557-21.333 21.333-21.333h274.816c11.776 0 21.333 9.557 21.333 21.333s-9.515 21.333-21.291 21.333z" />
<glyph unicode="&#xe926;" glyph-name="thin-0039_smiley_sad_face_unhappy" d="M512.171 950.827c-277.845 0-503.851-226.005-503.851-503.851s226.005-503.893 503.851-503.893 503.851 226.048 503.851 503.893c-0.043 277.845-226.005 503.851-503.851 503.851zM512.171-14.251c-254.293 0-461.184 206.933-461.184 461.227s206.891 461.184 461.184 461.184 461.184-206.891 461.184-461.184c-0.043-254.293-206.891-461.227-461.184-461.227zM469.675 552.661c0 57.557-46.848 104.363-104.405 104.363s-104.363-46.805-104.363-104.363 46.805-104.405 104.363-104.405 104.405 46.848 104.405 104.405zM303.573 552.661c0 34.005 27.691 61.696 61.696 61.696 34.048 0 61.739-27.691 61.739-61.696 0-34.048-27.691-61.739-61.739-61.739-34.005 0-61.696 27.691-61.696 61.739zM660.011 657.024c-57.6 0-104.405-46.805-104.405-104.363s46.848-104.405 104.405-104.405c57.557 0 104.363 46.848 104.363 104.405s-46.848 104.363-104.363 104.363zM660.011 490.923c-34.048 0-61.739 27.691-61.739 61.739 0 34.005 27.691 61.696 61.739 61.696s61.696-27.691 61.696-61.696c0-34.048-27.648-61.739-61.696-61.739zM512.128 363.392c-72.363 0-138.496-52.864-168.491-134.741-4.053-11.093 1.664-23.339 12.715-27.392 11.136-4.096 23.339 1.664 27.392 12.715 23.723 64.853 74.112 106.752 128.384 106.752s104.661-41.899 128.384-106.752c3.157-8.619 11.349-13.995 20.053-13.995 2.432 0 4.907 0.427 7.339 1.28 11.093 4.053 16.768 16.299 12.715 27.392-29.952 81.877-96.085 134.741-168.491 134.741z" />
<glyph unicode="&#xe927;" glyph-name="thin-0040_exit_logout_door_emergency_outside" d="M1015.552 505.003c1.067 2.56 1.664 5.376 1.664 8.192s-0.597 5.632-1.664 8.192c-1.067 2.603-2.645 4.949-4.608 6.912l-141.44 141.397c-8.32 8.32-21.845 8.32-30.165 0s-8.32-21.845 0-30.165l105.045-105.003h-454.187c-11.776 0-21.333-9.557-21.333-21.333s9.557-21.333 21.333-21.333h454.187l-105.045-105.045c-8.32-8.32-8.32-21.845 0-30.165 4.181-4.181 9.643-6.229 15.104-6.229s10.923 2.091 15.104 6.229l141.44 141.44c1.92 1.963 3.499 4.309 4.565 6.912zM656.896 406.144c-11.776 0-21.333-9.557-21.333-21.333v-194.261h-290.688v565.419c0 7.467-3.883 14.379-10.283 18.261l-237.739 144.213h538.667v-276.779c0-11.776 9.557-21.333 21.333-21.333s21.333 9.557 21.333 21.333v298.112c0 11.776-9.557 21.333-21.333 21.333h-636.288c-3.499 0-6.656-1.024-9.557-2.517-0.299-0.171-0.64-0.085-0.896-0.256-0.512-0.299-0.725-0.853-1.237-1.195-2.176-1.451-3.968-3.243-5.504-5.376-0.512-0.768-1.067-1.451-1.493-2.261-1.579-2.987-2.645-6.187-2.645-9.728v-781.013c0-7.467 3.883-14.379 10.283-18.261l303.019-183.808c3.413-2.048 7.211-3.072 11.051-3.072 3.584 0 7.211 0.896 10.453 2.731 6.741 3.797 10.88 10.88 10.88 18.603v172.928h311.979c11.776 0 21.333 9.557 21.333 21.333v215.595c0 11.776-9.557 21.333-21.333 21.333zM302.208 12.843l-260.352 157.909v731.093l260.352-157.909v-731.093z" />
<glyph unicode="&#xe928;" glyph-name="thin-0041_filter_funnel" d="M511.957 916.395c-263.040 0-502.613-78.805-502.613-168.875 0-75.989 111.104-197.76 218.624-315.52 64.768-70.955 126.080-138.155 149.461-181.248v-195.2c0-53.376 67.584-77.269 134.613-77.269 66.944 0 134.485 23.893 134.485 77.269v195.2c23.381 43.136 84.651 110.293 149.461 181.291 107.477 117.76 218.581 239.531 218.581 315.52v3.541c-0.043 86.528-239.573 165.291-502.613 165.291zM971.861 747.52c0-59.435-114.987-185.472-207.403-286.72-69.035-75.648-134.229-147.115-158.379-195.285-1.451-2.944-2.261-6.229-2.261-9.557v-200.405c0-18.731-42.027-34.603-91.819-34.603-49.835 0-91.947 15.829-91.947 34.603v200.405c0 3.328-0.768 6.571-2.261 9.557-24.107 48.171-89.301 119.637-158.336 195.243-92.416 101.291-207.445 227.328-207.445 290.347 0 36.395 178.517 122.667 459.947 122.667s459.904-86.229 459.904-122.667v-3.584zM940.885 752.981c-10.24 5.547-23.253 1.877-28.971-8.448-25.429-46.293-197.376-81.195-400-81.195 0 0-0.043 0-0.043 0-202.581 0-374.485 34.901-399.872 81.195-5.675 10.283-18.603 14.080-28.971 8.448-10.368-5.675-14.123-18.645-8.448-28.971 54.016-98.347 373.76-103.296 437.291-103.296 0 0 0 0 0.043 0 63.701 0 383.445 4.992 437.419 103.296 5.675 10.325 1.877 23.296-8.448 28.971z" />
<glyph unicode="&#xe929;" glyph-name="thin-0042_attachment" d="M957.312 864.939c-32.043 32.683-74.624 50.688-119.979 50.645-45.312 0-87.936-17.963-119.936-50.645l-453.035-462.293c-46.507-47.531-46.507-124.843 0-172.288 22.699-23.168 52.864-35.925 84.992-35.925 0 0 0 0 0 0 32.128 0 62.293 12.757 84.992 35.925l331.008 337.707c8.235 8.405 8.064 21.931-0.341 30.165-8.32 8.277-21.845 8.064-30.165-0.299l-330.965-337.749c-14.592-14.891-33.963-23.083-54.528-23.083v0c-20.565 0-39.936 8.192-54.528 23.083-30.379 31.061-30.379 81.536 0 112.64l453.077 462.251c47.872 48.853 131.072 48.768 178.859 0 49.664-50.645 49.664-133.077 0-183.723l-566.443-578.091c-33.237-33.877-77.355-52.523-124.331-52.523-46.933 0-91.093 18.688-124.331 52.523-68.907 70.272-68.907 184.661 0 255.019l444.331 453.376c8.235 8.405 8.107 21.931-0.299 30.165-8.448 8.32-21.931 8.149-30.165-0.299l-444.331-453.419c-85.035-86.741-85.035-227.925 0-314.667 41.301-42.155 96.299-65.365 154.795-65.365s113.451 23.211 154.752 65.365l566.571 578.005c65.749 67.115 65.749 176.341 0 243.499z" />
<glyph unicode="&#xe92a;" glyph-name="thin-0043_eye_visibility_show_visible" d="M513.963 662.656c-115.413 0-209.323-96.469-209.323-215.083s93.909-215.125 209.323-215.125 209.323 96.512 209.323 215.125c0 118.613-93.909 215.083-209.323 215.083zM513.963 275.157c-91.904 0-166.656 77.355-166.656 172.459s74.752 172.416 166.656 172.416c91.904 0 166.656-77.312 166.656-172.416s-74.752-172.459-166.656-172.459zM513.963 548.608c-54.4 0-98.645-45.312-98.645-101.035s44.245-100.992 98.645-100.992c54.357 0 98.645 45.312 98.645 100.992s-44.288 101.035-98.645 101.035zM513.963 389.248c-30.891 0-55.979 26.155-55.979 58.325s25.088 58.368 55.979 58.368c30.848 0 55.979-26.197 55.979-58.368s-25.131-58.325-55.979-58.325zM1005.013 457.045c-101.461 205.013-289.579 332.331-491.051 332.331-201.429 0-389.589-127.317-491.051-332.331-2.944-5.973-2.944-12.971 0-18.901 101.419-205.013 289.579-332.331 491.051-332.331s389.632 127.317 491.051 332.331c2.944 5.931 2.944 12.971 0 18.901zM513.963 148.48c-182.059 0-352.853 114.347-448 299.136 95.189 184.789 265.984 299.136 448 299.136 182.059 0 352.853-114.347 448-299.136-95.189-184.832-265.984-299.136-448-299.136z" />
<glyph unicode="&#xe92b;" glyph-name="thin-0044_eye_visibility_hide_invisible" d="M1006.805 942.549c-8.32 8.32-21.845 8.32-30.165 0l-954.027-953.984c-8.32-8.32-8.32-21.845 0-30.165 4.181-4.181 9.643-6.229 15.104-6.229s10.923 2.091 15.104 6.229l953.984 953.984c8.32 8.32 8.32 21.803 0 30.165zM603.563 612.267c4.437 10.923-0.811 23.339-11.691 27.776-77.355 31.531-162.389 14.293-221.653-44.928-59.392-59.349-76.672-144.341-45.099-221.781 3.371-8.277 11.349-13.312 19.755-13.312 2.688 0 5.419 0.512 8.021 1.579 10.923 4.437 16.171 16.896 11.691 27.776-24.917 61.269-11.264 128.555 35.755 175.531 46.933 46.891 114.091 60.501 175.403 35.584 10.837-4.395 23.339 0.896 27.819 11.776zM190.72 223.317c3.883-2.944 8.448-4.437 12.971-4.437 6.4 0 12.715 2.859 16.939 8.32 7.168 9.344 5.419 22.741-3.925 29.909-65.024 49.963-120.661 116.651-161.451 193.323 131.371 247.125 396.416 357.973 634.283 263.68 11.008-4.309 23.381 1.024 27.691 11.989 4.352 10.923-0.981 23.339-11.947 27.691-261.888 103.851-553.387-19.627-693.077-293.632-3.115-6.101-3.115-13.312 0-19.371 44.032-86.357 105.771-161.579 178.517-217.472zM1017.216 460.117c-43.989 86.272-105.728 161.493-178.517 217.472-9.344 7.125-22.656 5.376-29.909-3.925-7.168-9.344-5.419-22.741 3.925-29.909 65.067-50.005 120.704-116.693 161.451-193.323-131.371-247.125-396.501-357.973-634.325-263.68-10.965 4.395-23.339-0.981-27.691-11.947s1.024-23.381 11.989-27.691c62.293-24.704 126.251-36.523 189.483-36.523 202.496 0 397.141 121.429 503.595 330.197 3.115 6.059 3.115 13.269 0 19.328zM437.589 260.864c25.643-10.453 52.139-15.531 78.208-15.531 52.693 0 103.765 20.779 143.36 60.373 52.011 51.968 71.723 123.563 54.699 192.555-2.432 9.856-5.589 19.669-9.557 29.355-4.437 10.923-16.896 16.256-27.776 11.691-10.923-4.437-16.171-16.896-11.691-27.776 4.395-10.795 7.168-21.803 9.173-32.853 9.472-51.584-6.272-104.064-45.056-142.805-46.891-46.891-114.005-60.373-175.275-35.499-10.837 4.48-23.381-0.768-27.776-11.691-1.109-2.731-1.621-5.547-1.579-8.32 0.085-8.363 5.077-16.213 13.269-19.499zM489.429 551.808c-37.547-9.387-66.688-38.528-76.075-76.075-2.816-11.435 4.139-22.997 15.573-25.856 1.749-0.427 3.456-0.64 5.163-0.64 9.557 0 18.261 6.485 20.693 16.171 5.504 22.229 22.741 39.424 44.971 44.971 11.435 2.859 18.389 14.421 15.531 25.856-2.859 11.477-14.549 18.56-25.856 15.573zM534.827 348.459c1.707 0 3.456 0.213 5.205 0.64 37.461 9.344 66.645 38.485 76.075 76.032 2.773 11.093-3.797 22.187-14.677 25.472-0.341 0.085-0.597 0.341-0.939 0.427-0.768 0.171-1.536 0-2.304 0.085-2.091 0.299-4.181 0.555-6.229 0.256-8.235-1.28-15.232-7.296-17.365-15.872-5.547-22.229-22.741-39.424-44.928-44.971-11.435-2.859-18.389-14.421-15.531-25.856 2.432-9.728 11.136-16.213 20.693-16.213z" />
<glyph unicode="&#xe92c;" glyph-name="thin-0045_home_house" d="M996.139 518.656l-433.963 375.936c-1.451 1.237-3.2 2.304-5.163 3.115-27.776 21.077-66.133 20.096-92.928-3.115l-433.963-375.893c-31.104-26.923-35.029-74.709-8.704-106.539 16.64-20.139 44.245-19.883 65.408-15.616v-404.096c0-30.507 24.491-55.339 54.613-55.339h261.419c11.776 0 21.333 9.557 21.333 21.333v352.427h177.92v-352.427c0-11.776 9.557-21.333 21.333-21.333h261.419c30.123 0 54.613 24.832 54.613 55.339v404.096c21.248-4.181 48.768-4.48 65.408 15.616 26.283 31.829 22.357 79.659-8.747 106.496zM971.989 439.381c-4.395-5.163-27.136-2.347-45.312 5.589-6.613 2.901-14.293 2.219-20.224-1.707-6.016-3.925-9.685-10.667-9.685-17.835v-432.939c0-6.997-5.376-12.672-11.947-12.672h-240.085v352.427c0 11.776-9.557 21.333-21.333 21.333h-220.587c-11.776 0-21.333-9.557-21.333-21.333v-352.427h-240.085c-6.571 0-11.947 5.675-11.947 12.672v432.939c0 7.211-3.627 13.952-9.685 17.877-6.016 3.883-13.653 4.48-20.267 1.664-16.128-7.125-40.661-11.136-45.269-5.547-11.648 14.080-9.984 35.157 3.755 47.061l433.963 375.936c11.861 10.24 29.056 10.24 40.917 0 1.536-1.365 3.285-2.475 5.12-3.285l430.208-372.736c13.781-11.861 15.445-32.939 3.797-47.019z" />
<glyph unicode="&#xe92d;" glyph-name="thin-0046_home_house" d="M406.101 362.411h-130.091c-11.776 0-21.333-9.557-21.333-21.333v-129.707c0-11.776 9.557-21.333 21.333-21.333h130.091c11.776 0 21.333 9.557 21.333 21.333v129.707c0 11.819-9.557 21.333-21.333 21.333zM384.768 232.704h-87.424v87.040h87.424v-87.040zM1016.832 492.373l-490.88 415.616c-7.979 6.699-19.627 6.699-27.563 0l-490.923-415.616c-8.96-7.637-10.112-21.077-2.517-30.080 7.637-8.96 21.12-10.069 30.080-2.517l49.28 41.728v-543.403c0-11.776 9.557-21.333 21.333-21.333h812.971c11.776 0 21.333 9.557 21.333 21.333v543.445l49.28-41.728c4.011-3.371 8.917-5.035 13.781-5.035 6.059 0 12.032 2.56 16.299 7.552 7.595 8.96 6.528 22.443-2.475 30.037zM552.533-20.523v340.309h173.056v-340.309h-173.056zM897.28-20.523h-129.024v361.643c0 11.776-9.557 21.333-21.333 21.333h-215.723c-11.776 0-21.333-9.557-21.333-21.333v-361.643h-382.848v558.165l385.152 326.101 385.152-326.101v-558.165z" />
<glyph unicode="&#xe92e;" glyph-name="thin-0047_home_flat" d="M275.285 277.76h127.531c11.776 0 21.333 9.557 21.333 21.333v128.341c0 11.776-9.557 21.333-21.333 21.333h-127.531c-11.776 0-21.333-9.557-21.333-21.333v-128.341c0-11.776 9.515-21.333 21.333-21.333zM296.619 406.101h84.864v-85.675h-84.864v85.675zM275.285 533.76h127.531c11.776 0 21.333 9.557 21.333 21.333v128.384c0 11.776-9.557 21.333-21.333 21.333h-127.531c-11.776 0-21.333-9.557-21.333-21.333v-128.384c0-11.776 9.515-21.333 21.333-21.333zM296.619 662.144h84.864v-85.717h-84.864v85.717zM964.352 530.091l-324.352 67.541v319.445c0 6.229-2.688 12.117-7.424 16.171-4.651 4.053-10.667 5.76-17.067 4.949l-555.392-82.987c-10.453-1.579-18.176-10.539-18.176-21.12v-876.757c0-11.776 9.557-21.333 21.333-21.333h896.725c11.776 0 21.333 9.557 21.333 21.333v551.893c0 10.112-7.083 18.816-16.981 20.864zM84.608 815.701l512.725 76.629v-913.664h-173.184v190.123c0 11.776-9.557 21.333-21.333 21.333h-127.531c-11.776 0-21.333-9.557-21.333-21.333v-190.123h-169.344v837.035zM296.619-20.523v168.021h84.864v-168.021h-84.864zM938.667-21.333h-129.92v105.899c0 11.776-9.557 21.333-21.333 21.333s-21.333-9.557-21.333-21.333v-105.899h-126.080v575.403l298.667-62.208v-513.195zM787.413 193.323c11.776 0 21.333 9.557 21.333 21.333v46.080c0 11.776-9.557 21.333-21.333 21.333s-21.333-9.557-21.333-21.333v-46.080c0-11.776 9.557-21.333 21.333-21.333zM787.413 321.323c11.776 0 21.333 9.557 21.333 21.333v46.080c0 11.776-9.557 21.333-21.333 21.333s-21.333-9.557-21.333-21.333v-46.080c0-11.776 9.557-21.333 21.333-21.333z" />
<glyph unicode="&#xe92f;" glyph-name="thin-0048_factory_work" d="M1013.077 539.605c-6.741 3.797-14.976 3.669-21.547-0.427l-223.531-136.747v118.613c0 7.723-4.181 14.848-10.923 18.603-6.741 3.797-14.976 3.669-21.547-0.427l-223.531-136.789v118.571c0 7.68-4.139 14.805-10.837 18.603-6.699 3.755-14.891 3.627-21.504-0.299l-237.44-143.061-20.139 543.232c-0.427 11.435-9.856 20.523-21.333 20.523h-154.837c-11.563 0-21.077-9.259-21.333-20.821l-23.125-981.333c-0.128-5.76 2.048-11.307 6.059-15.403s9.472-6.443 15.232-6.443h979.925c11.776 0 21.333 9.557 21.333 21.333v563.669c0 7.723-4.181 14.848-10.923 18.603zM469.333 483.243v-504.576h-211.627l-13.696 368.768 225.323 135.808zM44.587-21.333l22.144 938.667h113.451l20.693-558.293c0-0.256-0.171-0.469-0.171-0.725l14.165-376.491 0.128-3.157h-170.411zM512 352.384l213.333 130.56v-504.277h-213.333v373.717zM981.333-21.333h-213.333v373.717l213.333 130.56v-504.277zM362.965 228.907c11.776 0 21.333 9.557 21.333 21.333v53.632c0 11.776-9.557 21.333-21.333 21.333s-21.333-9.557-21.333-21.333v-53.632c0-11.776 9.515-21.333 21.333-21.333zM619.008 325.205c-11.776 0-21.333-9.557-21.333-21.333v-53.632c0-11.776 9.557-21.333 21.333-21.333s21.333 9.557 21.333 21.333v53.632c0 11.819-9.557 21.333-21.333 21.333zM875.008 228.907c11.776 0 21.333 9.557 21.333 21.333v53.632c0 11.776-9.557 21.333-21.333 21.333s-21.333-9.557-21.333-21.333v-53.632c0-11.776 9.515-21.333 21.333-21.333z" />
<glyph unicode="&#xe930;" glyph-name="thin-0049_settings_panel_equalizer_preferences" d="M961.109 577.323c0 64.213-47.019 117.291-108.331 127.531v212.437c0 11.776-9.557 21.333-21.333 21.333s-21.333-9.557-21.333-21.333v-212.395c-61.355-10.24-108.373-63.317-108.373-127.531s47.019-117.248 108.373-127.531v-472.107c0-11.776 9.557-21.333 21.333-21.333s21.333 9.557 21.333 21.333v472.107c61.355 10.24 108.331 63.317 108.331 127.488zM831.445 490.325c-48 0-87.040 39.040-87.040 86.997s39.040 87.040 87.040 87.040c47.957 0 86.997-39.040 86.997-87.040s-39.040-86.997-86.997-86.997zM215.595 871.381v45.909c0 11.776-9.557 21.333-21.333 21.333s-21.333-9.557-21.333-21.333v-45.909c-61.312-10.24-108.331-63.317-108.331-127.531s47.019-117.291 108.331-127.531v-638.635c0-11.776 9.557-21.333 21.333-21.333s21.333 9.557 21.333 21.333v638.635c61.355 10.24 108.373 63.317 108.373 127.531s-47.019 117.291-108.373 127.531zM194.261 656.853c-48 0-86.997 39.040-86.997 87.040s39.040 86.997 86.997 86.997 87.040-39.040 87.040-86.997-39.040-87.040-87.040-87.040zM533.333 359.424v557.867c0 11.776-9.557 21.333-21.333 21.333s-21.333-9.557-21.333-21.333v-557.824c-61.312-10.24-108.331-63.317-108.331-127.531s47.019-117.291 108.331-127.573v-126.677c0-11.776 9.557-21.333 21.333-21.333s21.333 9.557 21.333 21.333v126.677c61.312 10.24 108.331 63.317 108.331 127.573 0 64.171-47.019 117.248-108.331 127.488zM512 144.896c-48 0-86.997 39.040-86.997 87.040 0 47.957 39.040 86.997 86.997 86.997s86.997-39.040 86.997-86.997c0-48-39.040-87.040-86.997-87.040z" />
<glyph unicode="&#xe931;" glyph-name="thin-0050_settings_panel_equalizer_preferences" d="M900.949 960h-777.941c-67.84 0-123.008-55.168-123.008-123.008v-777.984c0-67.84 55.168-123.008 123.008-123.008h777.941c67.84 0 123.051 55.168 123.051 123.008v777.984c0 67.84-55.211 123.008-123.051 123.008zM981.333 59.008c0-44.288-36.053-80.341-80.384-80.341h-777.941c-44.288 0-80.341 36.053-80.341 80.341v777.984c0 44.331 36.053 80.341 80.341 80.341h777.941c44.331 0 80.384-36.011 80.384-80.341v-777.984zM298.539 758.229v12.715c0 11.776-9.557 21.333-21.333 21.333s-21.333-9.557-21.333-21.333v-12.757c-50.176-9.941-88.107-54.229-88.107-107.221s37.931-97.28 88.064-107.264v-417.109c0-11.776 9.557-21.333 21.333-21.333s21.333 9.557 21.333 21.333v417.109c50.133 9.941 88.064 54.229 88.064 107.264s-37.888 97.28-88.021 107.264zM277.205 584.192c-36.821 0-66.731 29.952-66.731 66.731s29.952 66.731 66.731 66.731 66.731-29.952 66.731-66.731-29.952-66.731-66.731-66.731zM537.301 384.64v386.304c0 11.776-9.557 21.333-21.333 21.333s-21.333-9.557-21.333-21.333v-386.304c-50.133-9.941-88.064-54.229-88.064-107.264s37.931-97.28 88.064-107.264v-43.52c0-11.776 9.557-21.333 21.333-21.333s21.333 9.557 21.333 21.333v43.52c50.133 9.941 88.064 54.229 88.064 107.264s-37.931 97.323-88.064 107.264zM515.968 210.645c-36.821 0-66.731 29.952-66.731 66.731s29.952 66.731 66.731 66.731 66.731-29.952 66.731-66.731-29.909-66.731-66.731-66.731zM767.104 651.477v119.467c0 11.776-9.557 21.333-21.333 21.333s-21.333-9.557-21.333-21.333v-119.467c-50.133-9.941-88.064-54.229-88.064-107.264s37.931-97.28 88.064-107.264v-310.357c0-11.776 9.557-21.333 21.333-21.333s21.333 9.557 21.333 21.333v310.357c50.133 9.941 88.064 54.229 88.064 107.264s-37.888 97.323-88.064 107.264zM745.771 477.483c-36.779 0-66.731 29.952-66.731 66.731s29.952 66.731 66.731 66.731 66.731-29.952 66.731-66.731-29.909-66.731-66.731-66.731z" />
<glyph unicode="&#xe932;" glyph-name="thin-0051_settings_gear_preferences" d="M511.915 645.717c-109.355 0-198.315-88.96-198.315-198.315 0-109.312 88.96-198.272 198.315-198.272 109.312 0 198.272 88.96 198.272 198.272 0.043 109.355-88.917 198.315-198.272 198.315zM511.915 291.755c-85.845 0-155.648 69.845-155.648 155.605 0 85.845 69.803 155.648 155.648 155.648 85.803 0 155.605-69.803 155.605-155.648 0.043-85.76-69.803-155.605-155.605-155.605zM1006.208 516.352c-1.323 9.515-8.832 16.981-18.389 18.219l-115.157 15.104c-7.936 27.947-19.072 54.912-33.323 80.384l70.869 92.203c5.845 7.595 5.888 18.219 0.085 25.856-27.819 36.864-60.672 69.675-97.451 97.536-7.723 5.76-18.261 5.76-25.856-0.085l-92.16-70.827c-25.515 14.293-52.437 25.472-80.469 33.408l-15.104 115.2c-1.237 9.515-8.704 17.024-18.261 18.347-46.933 6.528-90.709 6.571-137.771 0.043-9.557-1.28-16.981-8.832-18.261-18.347l-15.104-115.2c-28.075-7.936-55.083-19.115-80.64-33.408l-92.16 70.869c-7.68 5.845-18.219 5.888-25.856 0.085-36.309-27.477-70.016-61.141-97.451-97.408-5.845-7.68-5.803-18.261 0.043-25.899l70.827-92.16c-14.293-25.515-25.515-52.565-33.493-80.683l-115.2-15.104c-9.515-1.237-17.024-8.704-18.347-18.219-6.315-45.739-6.315-92.075 0-137.771 1.323-9.557 8.832-16.981 18.347-18.261l115.2-15.104c7.936-28.117 19.157-55.168 33.493-80.725l-70.827-92.16c-5.845-7.637-5.888-18.219-0.085-25.856 27.52-36.267 61.227-69.973 97.493-97.365 7.637-5.803 18.219-5.717 25.856 0.128l92.203 70.827c25.515-14.293 52.523-25.515 80.64-33.408l15.061-115.157c1.237-9.557 8.704-17.067 18.261-18.389 23.467-3.243 46.123-4.821 68.736-4.821 22.741 0 45.483 1.621 69.035 4.864 9.557 1.28 16.981 8.832 18.261 18.347l15.104 115.243c27.989 7.979 54.955 19.115 80.469 33.408l92.16-70.827c7.637-5.888 18.261-5.845 25.856-0.085 36.736 27.776 69.589 60.629 97.451 97.493 5.803 7.68 5.76 18.261-0.085 25.856l-70.827 92.16c14.251 25.557 25.429 52.48 33.28 80.427l115.2 15.104c9.515 1.237 17.024 8.704 18.347 18.261 6.528 47.061 6.528 90.88 0 137.899zM965.931 400.384l-113.024-14.805c-8.747-1.152-15.872-7.595-17.963-16.213-8.021-33.408-21.291-65.451-39.424-95.147-4.565-7.552-4.096-17.109 1.28-24.107l69.504-90.411c-19.883-24.405-42.112-46.677-66.475-66.517l-90.411 69.504c-7.083 5.376-16.597 5.931-24.149 1.28-29.568-18.176-61.611-31.445-95.189-39.552-8.576-2.091-15.019-9.216-16.171-17.963l-14.805-113.067c-31.744-3.285-62.251-3.243-93.995-0.043l-14.805 112.939c-1.152 8.789-7.552 15.915-16.171 18.005-33.664 8.064-65.749 21.376-95.36 39.552-7.509 4.523-17.152 4.096-24.149-1.28l-90.453-69.504c-24.107 19.669-46.72 42.24-66.432 66.432l69.461 90.368c5.376 6.997 5.888 16.64 1.28 24.149-18.176 29.653-31.531 61.739-39.595 95.445-2.048 8.576-9.216 15.019-17.963 16.171l-112.981 14.805c-3.2 31.189-3.2 62.677 0 93.909l112.981 14.805c8.747 1.152 15.915 7.552 17.963 16.171 8.064 33.707 21.419 65.792 39.595 95.445 4.608 7.552 4.139 17.152-1.28 24.149l-69.461 90.411c19.712 24.107 42.283 46.72 66.475 66.389l90.411-69.461c6.997-5.419 16.64-5.931 24.149-1.28 29.653 18.133 61.739 31.445 95.36 39.509 8.576 2.048 15.019 9.216 16.171 17.963l14.805 112.981c31.829 3.285 62.251 3.285 93.995-0.043l14.805-113.024c1.152-8.747 7.595-15.915 16.171-17.963 33.579-8.064 65.621-21.376 95.189-39.509 7.595-4.565 17.067-4.096 24.149 1.28l90.411 69.504c24.32-19.84 46.635-42.112 66.475-66.517l-69.547-90.453c-5.376-6.997-5.888-16.597-1.28-24.149 18.176-29.611 31.403-61.653 39.467-95.147 2.091-8.619 9.216-15.019 18.005-16.171l112.981-14.805c3.328-31.744 3.328-62.251 0-94.037z" />
<glyph unicode="&#xe933;" glyph-name="thin-0052_settings_gears_preferences_gearbox" d="M340.053 411.264c-75.819 0-137.557-61.653-137.557-137.515s61.696-137.557 137.557-137.557 137.515 61.696 137.515 137.557-61.696 137.515-137.515 137.515zM340.053 178.901c-52.309 0-94.891 42.539-94.891 94.891 0 52.309 42.581 94.848 94.891 94.848s94.848-42.539 94.848-94.848c0-52.352-42.539-94.891-94.848-94.891zM653.44 338.261l-70.869 9.259c-4.779 15.744-11.093 30.976-18.816 45.483l43.563 56.747c5.845 7.637 5.888 18.219 0.085 25.856-18.688 24.747-40.704 46.763-65.408 65.451-7.68 5.803-18.261 5.717-25.856-0.085l-56.704-43.563c-14.549 7.808-29.781 14.123-45.525 18.901l-9.301 70.869c-1.237 9.515-8.704 17.024-18.219 18.347-31.573 4.437-60.971 4.437-92.501 0-9.515-1.28-16.981-8.789-18.219-18.347l-9.259-70.869c-15.787-4.779-31.061-11.093-45.611-18.901l-56.747 43.605c-7.637 5.888-18.261 5.931-25.899 0.128-24.32-18.432-46.976-41.045-65.408-65.408-5.803-7.637-5.76-18.261 0.085-25.856l43.563-56.704c-7.808-14.635-14.165-29.867-18.944-45.696l-70.869-9.259c-9.515-1.237-17.024-8.704-18.347-18.261-4.267-30.72-4.267-61.824 0-92.459 1.323-9.557 8.832-16.981 18.347-18.261l70.869-9.259c4.821-15.829 11.136-31.104 18.944-45.696l-43.563-56.704c-5.845-7.637-5.888-18.219-0.085-25.856 18.475-24.363 41.088-47.019 65.408-65.365 7.68-5.803 18.261-5.803 25.856 0.085l56.747 43.605c14.592-7.808 29.867-14.123 45.653-18.901l9.259-70.827c1.237-9.557 8.704-17.067 18.219-18.389 15.787-2.176 30.976-3.285 46.165-3.285 15.275 0 30.592 1.109 46.379 3.328 9.515 1.323 16.939 8.832 18.176 18.389l9.301 70.869c15.744 4.779 30.976 11.136 45.525 18.901l56.704-43.563c7.552-5.845 18.176-5.845 25.856-0.085 24.747 18.688 46.72 40.704 65.451 65.408 5.76 7.68 5.717 18.261-0.128 25.856l-43.563 56.747c7.765 14.507 14.037 29.696 18.816 45.44l70.869 9.259c9.557 1.237 17.024 8.704 18.389 18.261 4.309 31.019 4.309 61.312 0 92.544-1.28 9.515-8.832 17.024-18.389 18.261zM631.381 249.387l-68.395-8.96c-8.789-1.152-15.915-7.595-17.963-16.171-5.163-21.333-13.568-41.643-25.045-60.373-4.608-7.509-4.096-17.109 1.28-24.107l42.069-54.741c-10.539-12.416-22.016-23.936-34.432-34.432l-54.741 42.027c-6.997 5.333-16.597 5.888-24.149 1.237-18.731-11.52-39.083-19.968-60.416-25.088-8.576-2.091-15.019-9.216-16.128-18.005l-8.96-68.437c-16.341-1.408-32.256-1.408-48.725 0l-8.917 68.437c-1.152 8.789-7.595 15.957-16.171 18.005-21.333 5.077-41.685 13.525-60.501 25.088-7.509 4.523-17.109 4.053-24.149-1.28l-54.741-42.069c-12.331 10.411-23.936 22.016-34.432 34.389l42.027 54.699c5.376 6.997 5.888 16.64 1.28 24.149-11.563 18.773-20.011 39.168-25.131 60.544-2.048 8.576-9.216 15.019-17.963 16.171l-68.395 8.96c-1.323 16.171-1.323 32.469 0 48.64l68.395 8.96c8.747 1.152 15.915 7.595 17.963 16.171 5.12 21.376 13.568 41.771 25.131 60.587 4.608 7.552 4.096 17.152-1.28 24.149l-42.027 54.699c10.496 12.331 22.101 23.979 34.432 34.432l54.741-42.069c7.040-5.419 16.64-5.888 24.107-1.28 18.859 11.52 39.211 19.968 60.544 25.045 8.576 2.048 15.019 9.216 16.171 17.963l8.917 68.395c16.384 1.408 32.299 1.408 48.725 0l8.96-68.437c1.152-8.747 7.552-15.915 16.128-17.963 21.333-5.163 41.643-13.568 60.416-25.088 7.552-4.608 17.152-4.139 24.149 1.28l54.741 42.069c12.416-10.496 23.893-22.016 34.432-34.432l-42.069-54.741c-5.376-6.997-5.888-16.597-1.28-24.107 11.52-18.816 19.925-39.125 25.045-60.416 2.048-8.576 9.216-15.019 17.963-16.171l68.395-8.96c1.408-16.469 1.408-32.427 0-48.768zM778.197 812.203c-53.376 0-96.811-43.435-96.811-96.811s43.435-96.811 96.811-96.811 96.853 43.435 96.853 96.811-43.477 96.811-96.853 96.811zM778.197 661.248c-29.824 0-54.144 24.277-54.144 54.144s24.277 54.144 54.144 54.144c29.867 0 54.187-24.277 54.187-54.144s-24.32-54.144-54.187-54.144zM1008.171 677.931l-41.557 23.723c0.725 9.685 0.683 19.371-0.085 29.013l41.387 24.064c8.277 4.821 12.331 14.635 9.856 23.936-5.888 22.144-14.805 43.392-26.411 63.104-4.907 8.277-14.635 12.16-23.979 9.728l-46.165-12.672c-6.357 7.381-13.269 14.208-20.608 20.48l12.203 46.251c2.475 9.259-1.579 19.029-9.899 23.893-20.053 11.648-40.747 20.181-63.275 25.941-9.344 2.475-19.072-1.749-23.851-10.112l-23.68-41.515c-9.685 0.683-19.371 0.64-29.184-0.128l-24.021 41.387c-4.864 8.277-14.507 12.373-23.936 9.899-21.803-5.76-43.605-14.933-63.104-26.453-8.235-4.907-12.245-14.72-9.728-23.979l12.587-46.165c-7.381-6.357-14.251-13.269-20.523-20.693l-46.208 12.288c-9.472 2.517-19.072-1.621-23.936-9.899-11.52-19.797-20.224-41.088-25.899-63.275-2.389-9.301 1.749-19.072 10.069-23.851l41.557-23.723c-0.725-9.728-0.683-19.456 0.128-29.184l-41.301-24.064c-8.277-4.821-12.373-14.592-9.899-23.893 5.76-21.845 14.933-43.691 26.453-63.104 4.907-8.277 14.677-12.117 23.979-9.685l46.165 12.629c6.357-7.381 13.312-14.251 20.693-20.523l-12.245-46.208c-2.475-9.301 1.621-19.115 9.899-23.936 20.181-11.648 40.875-20.139 63.317-25.856 1.749-0.469 3.541-0.683 5.291-0.683 7.552 0 14.677 4.011 18.56 10.752l23.723 41.557c9.685-0.64 19.371-0.64 29.056 0.128l24.021-41.344c4.864-8.32 14.891-12.373 23.936-9.899 22.229 5.888 43.477 14.805 63.104 26.453 8.235 4.907 12.245 14.72 9.728 23.979l-12.629 46.208c7.339 6.357 14.208 13.227 20.437 20.608l46.208-12.245c9.515-2.475 19.115 1.621 23.936 9.899 11.648 20.139 20.181 40.875 25.899 63.317 2.389 9.344-1.749 19.115-10.069 23.851zM962.987 626.432l-43.477 11.52c-8.576 2.219-17.579-0.939-22.784-8.149-8.789-12.245-19.541-23.083-31.915-32.171-7.125-5.248-10.283-14.293-7.979-22.827l11.861-43.435c-7.381-3.627-14.976-6.784-22.741-9.515l-22.571 38.869c-4.437 7.595-13.141 11.648-21.888 10.325-15.104-2.475-30.379-2.603-45.312-0.213-8.704 1.408-17.408-2.816-21.803-10.496l-22.272-39.083c-7.851 2.645-15.317 5.717-22.784 9.344l11.52 43.435c2.261 8.576-0.981 17.621-8.149 22.784-12.331 8.832-23.168 19.584-32.256 32-5.205 7.125-14.208 10.197-22.827 7.979l-43.392-11.861c-3.627 7.339-6.784 14.976-9.515 22.699l38.827 22.613c7.637 4.437 11.691 13.141 10.283 21.845-2.432 15.104-2.517 30.421-0.213 45.525 1.323 8.747-2.816 17.365-10.496 21.717l-38.997 22.229c2.645 7.765 5.76 15.36 9.344 22.784l43.435-11.477c8.576-2.219 17.621 0.981 22.741 8.149 8.917 12.373 19.712 23.211 32.043 32.256 7.125 5.248 10.283 14.293 7.979 22.827l-11.861 43.349c7.381 3.584 14.976 6.784 22.699 9.515l22.571-38.869c4.437-7.637 13.013-11.861 21.888-10.325 15.147 2.432 30.464 2.475 45.44 0.171 8.576-1.237 17.408 2.816 21.803 10.539l22.229 39.040c7.851-2.645 15.317-5.717 22.784-9.344l-11.52-43.52c-2.261-8.533 0.981-17.579 8.107-22.741 12.288-8.875 23.125-19.627 32.213-32 5.248-7.125 14.336-10.283 22.827-7.979l43.392 11.861c3.627-7.381 6.784-14.976 9.557-22.741l-38.912-22.613c-7.637-4.437-11.691-13.141-10.283-21.845 2.432-14.976 2.475-30.208 0.171-45.312-1.323-8.704 2.816-17.365 10.496-21.717l39.040-22.272c-2.56-7.893-5.675-15.403-9.301-22.869z" />
<glyph unicode="&#xe934;" glyph-name="thin-0053_settings_tools_pipe" d="M746.667 832c11.776 0 21.333 9.557 21.333 21.333v35.456c0 6.827-3.243 13.227-8.747 17.195l-68.224 49.877c-3.627 2.731-8.021 4.139-12.587 4.139h-332.885c-4.523 0-8.917-1.408-12.587-4.096l-68.224-49.877c-5.504-4.053-8.747-10.453-8.747-17.237v-35.456c0-11.776 9.557-21.333 21.333-21.333h213.333v-31.317h-48.555c-11.776 0-21.333-9.557-21.333-21.333s9.557-21.333 21.333-21.333h48.555v-21.163h-48.555c-11.776 0-21.333-9.557-21.333-21.333s9.557-21.333 21.333-21.333h48.555v-32.853h-213.333c-11.776 0-21.333-9.515-21.333-21.333v-32.427c0-6.571 3.029-12.8 8.235-16.853l68.224-52.907c3.755-2.901 8.363-4.48 13.099-4.48h145.109v-85.333h-42.667c-11.776 0-21.333-9.557-21.333-21.333v-469.333c0-11.776 9.557-21.333 21.333-21.333h128c11.776 0 21.333 9.557 21.333 21.333v469.333c0 11.776-9.557 21.333-21.333 21.333h-42.667v85.333h145.109c4.736 0 9.344 1.579 13.099 4.48l68.224 52.907c5.205 4.053 8.235 10.283 8.235 16.853v32.427c0 11.819-9.557 21.333-21.333 21.333h-213.333v32.853h48.597c11.776 0 21.333 9.557 21.333 21.333s-9.557 21.333-21.333 21.333h-48.597v21.163h48.597c11.776 0 21.333 9.557 21.333 21.333s-9.557 21.333-21.333 21.333h-48.597v31.317h213.333zM554.667-21.333h-85.333v426.667h85.333v-426.667zM671.147 576h-318.293l-54.187 42.069 426.667 0.597-54.187-42.667zM298.667 877.952l53.845 39.381h318.976l53.845-39.381v-3.285h-426.667v3.285z" />
</font>
</defs>
</svg>
