<?xml version="1.0" standalone="no"?>
<!DOCTYPE svg PUBLIC "-//W3C//DTD SVG 1.1//EN" "http://www.w3.org/Graphics/SVG/1.1/DTD/svg11.dtd" >
<svg xmlns="http://www.w3.org/2000/svg">
<metadata>
This is a custom SVG webfont generated by Font Squirrel.
Copyright   : Copyright c 2011 by vernon adams All rights reserved
Designer    : vernon adams
Foundry     : vernon adams
</metadata>
<defs>
<font id="OswaldStencilRegular" horiz-adv-x="1198" >
<font-face units-per-em="2048" ascent="1638" descent="-410" />
<missing-glyph horiz-adv-x="290" />
<glyph unicode=" "  horiz-adv-x="290" />
<glyph unicode="&#x09;" horiz-adv-x="290" />
<glyph unicode="&#xa0;" horiz-adv-x="290" />
<glyph unicode="!" horiz-adv-x="504" d="M100 1781h310l-109 -1336h-102zM105 0v286h292v-286h-292z" />
<glyph unicode="&#x22;" horiz-adv-x="744" d="M54 1782h266q-3 -18 -6.5 -268t-5.5 -266h-173zM431 1248v534h259q-2 -11 -24 -140.5t-43 -254t-24 -139.5h-168z" />
<glyph unicode="#" horiz-adv-x="1121" d="M88 626v226h180l28 142h-197v223h233l98 566h195l-99 -566h149l99 566h194l-99 -566h140v-223h-176l-27 -142h192v-226h-229l-110 -626h-193l110 626h-151l-110 -626h-192l110 626h-145zM462 852h150l27 142h-150z" />
<glyph unicode="$" horiz-adv-x="1101" d="M86 541l313 62q0 -304 175 -304q18 0 33 3v-410h-97v164q-106 10 -187.5 51.5t-131.5 107.5t-76 147.5t-29 178.5zM86 1275q0 174 101 284t273 138v-257q-63 -38 -63 -126q0 -70 38 -123.5t111 -109.5l159 -122q66 -50 107.5 -86t86.5 -84.5t69.5 -95t40.5 -107 t16 -130.5q0 -160 -103.5 -267t-264.5 -129v258q57 33 57 130q0 41 -15 78t-48 72.5t-61 60t-78 63.5q-9 7 -13 10l-153 120q-59 46 -98 83.5t-80 90t-61.5 115t-20.5 134.5zM510 1459v431h97v-186q174 -11 289 -123t122 -281v-20q0 -20 1 -20l-318 -48q2 28 2 59 q-3 51 -16.5 91.5t-48 70.5t-85.5 30q-17 0 -43 -4z" />
<glyph unicode="%" horiz-adv-x="1866" d="M84 1267v60q0 211 75.5 329t248.5 127l1 -186q-57 -12 -75 -78.5t-18 -194.5v-56q0 -128 18.5 -199.5t73.5 -85.5v-186q-324 17 -324 470zM458 983q55 14 73 85t18 200v55q0 130 -17 195.5t-73 77.5v187q172 -9 248.5 -127t76.5 -329v-60q0 -453 -325 -470zM561 0 l571 1810h167l-572 -1810h-166zM1084 465v60q0 211 75.5 329t248.5 127l1 -186q-57 -12 -75 -78.5t-18 -194.5v-56q0 -128 18.5 -199.5t73.5 -85.5v-186q-324 17 -324 470zM1458 181q55 14 73 85t18 200v55q0 130 -17 195.5t-73 77.5v187q172 -9 248.5 -127t76.5 -329v-60 q0 -453 -325 -470z" />
<glyph unicode="&#x26;" horiz-adv-x="1177" d="M66 369q0 135 62.5 257.5t177.5 265.5l170 210q77 95 118 171t41 159q0 57 -23.5 102.5t-73.5 55.5v222q156 -12 250 -111t94 -257q0 -53 -9.5 -103.5t-34 -104.5t-44 -91t-63.5 -97.5t-65.5 -88.5t-76.5 -96l-169 -211q-41 -52 -66.5 -126t-25.5 -145q0 -147 102 -185 v-225q-174 6 -269 117t-95 281zM135 1420q0 169 94.5 280t259.5 114v-225q-85 -20 -85 -171q0 -138 49 -263l-171 -211q-147 308 -147 476zM446 606l172 210l163 -262l-173 -213q-144 234 -162 265zM478 -29v223q80 6 158 102l348 429l168 -167l-199 -244l145 -188 l-181 -161l-120 159q-120 -145 -319 -153z" />
<glyph unicode="'" horiz-adv-x="360" d="M47 1780h274q-3 -17 -33.5 -266.5t-33.5 -266.5h-141z" />
<glyph unicode="(" horiz-adv-x="660" d="M147 848q0 257 2 303q16 439 174 610q111 119 293 119v-202q-46 0 -82.5 -26t-59 -74.5t-37.5 -103.5t-22.5 -128t-10 -132t-2.5 -130q0 -37 1 -93.5t1 -73.5q0 -18 -1 -81.5t-1 -104.5q0 -72 2.5 -132t10 -132t22.5 -127t38 -103t59 -73.5t82 -25.5v-202 q-95 0 -170 33.5t-123 83.5t-83 132t-52.5 153t-27 175t-11.5 170.5t-2 164.5z" />
<glyph unicode=")" horiz-adv-x="662" d="M89 -64v202q46 0 82 25.5t59 73.5t38 103t22.5 127t10 132t2.5 132q0 41 -1 104.5t-1 81.5q0 17 0.5 71.5t0.5 90.5q0 71 -2.5 130.5t-9.5 133t-22 129t-37.5 104.5t-59 75.5t-82.5 26.5v202q95 0 170.5 -34t124 -84.5t83 -133.5t52 -155t27.5 -177.5t11.5 -171.5 t1.5 -165v-60q-1 -59 0.5 -125.5t-4 -138t-11.5 -142.5t-23.5 -140t-39.5 -131t-58.5 -114.5t-82 -90.5t-110 -59.5t-141.5 -21.5z" />
<glyph unicode="*" horiz-adv-x="879" d="M71 1302l66 173l229 -119l-25 273h250l-25 -273l229 119l66 -173l-249 -96l164 -234l-171 -102l-134 234l-144 -234l-171 102l164 234z" />
<glyph unicode="+" horiz-adv-x="737" d="M57 607v148h176v176h186v-176h179v-148h-179v-176h-186v176h-176z" />
<glyph unicode="," horiz-adv-x="451" d="M90 -1v287h292v-146q0 -65 -2 -108.5t-8 -92.5t-19 -79.5t-33.5 -57.5t-52 -39t-74.5 -12q-25 0 -38 2l-38 142q56 5 71 25t16 79h-114z" />
<glyph unicode="-" horiz-adv-x="452" d="M29 452v199h394v-199h-394z" />
<glyph unicode="." horiz-adv-x="494" d="M103 0v286h293v-286h-293z" />
<glyph unicode="/" horiz-adv-x="841" d="M64 0l572 1810h172l-573 -1810h-171z" />
<glyph unicode="0" horiz-adv-x="1125" d="M95 522v736q0 92 15.5 172.5t49.5 150.5t85.5 120.5t127 80t169.5 32.5v-266q-140 -17 -140 -282v-752q0 -264 140 -282v-265q-115 3 -202.5 48.5t-140 122.5t-78.5 173.5t-26 210.5zM592 -32v266q40 8 68 37t41.5 72.5t19 84t5.5 86.5v752q0 257 -134 281v266 q114 -5 200.5 -50t137.5 -121.5t76 -172.5t25 -211v-736q0 -111 -26.5 -207t-78.5 -172.5t-137.5 -123t-196.5 -51.5z" />
<glyph unicode="1" horiz-adv-x="644" d="M2 1336v238q114 49 175 97l1 -318zM226 1694q36 26 72 89h230v-1783h-301z" />
<glyph unicode="2" horiz-adv-x="1045" d="M47 0v219l468 685q169 246 169 420q0 83 -33 149t-98 77v265q208 -7 321 -138.5t113 -352.5q0 -245 -209 -538q-85 -131 -307 -454l-245 -332h-179zM64 1175v93q0 120 24.5 215.5t76 169.5t137.5 116t202 46v-265q-33 -6 -58 -25.5t-39.5 -53.5t-23.5 -64.5t-12.5 -78.5 t-4 -73t-0.5 -68v-12h-302zM289 0l218 296h475v-296h-693z" />
<glyph unicode="3" horiz-adv-x="1065" d="M70 493v53h303q0 -47 2 -81t10 -78t21.5 -72.5t39 -51.5t60.5 -29v-267q-122 4 -208 45.5t-134 115.5t-70 162.5t-24 202.5zM70 1238v95q0 214 112 343.5t324 138.5v-265q-34 -6 -59.5 -30t-39 -53t-21.5 -73t-10 -77.5t-3 -78.5h-303zM441 802v301q129 0 189 48t60 182 q0 203 -134 218v265q212 -7 326 -138t114 -346q0 -124 -51 -227.5t-143 -154.5q95 -64 144.5 -176.5t49.5 -258.5q0 -119 -23.5 -214t-74.5 -170t-137.5 -117.5t-204.5 -46.5v266q43 5 71 29.5t41 67.5t17.5 84.5t4.5 99.5q0 136 -61 212t-188 76z" />
<glyph unicode="4" horiz-adv-x="1056" d="M60 453v243l430 1086h230l-386 -1086h174v-243h-448zM558 0v1176l215 606h87v-1782h-302zM910 453v243h118v-243h-118z" />
<glyph unicode="5" horiz-adv-x="1093" d="M114 540l303 2q0 -77 4 -127t15.5 -95t35.5 -68t61 -28v-256q-96 5 -169 36.5t-120 82t-76.5 123.5t-41.5 153t-12 177zM146 771v1011h277v-1011h-277zM473 869v254q73 38 150 38q92 0 163 -30t115.5 -80t73 -122t40 -148.5t11.5 -166.5q0 -635 -443 -647v259 q40 7 68.5 36.5t43 65.5t22.5 93t9.5 97t1.5 99q0 60 -6 107t-21.5 92t-48.5 70t-81 25q-51 0 -98 -42zM473 1490v292h485v-292h-485z" />
<glyph unicode="6" horiz-adv-x="1090" d="M95 537v666q0 92 12.5 173.5t43.5 161.5t79.5 138.5t126.5 96t177 41.5v-265q-133 -22 -133 -353v-673q0 -267 133 -289v-263q-91 4 -165.5 37t-125 86t-84.5 125t-49 151.5t-15 166.5zM451 817v254q74 31 164 31q411 0 411 -536q0 -92 -14.5 -174.5t-48.5 -158 t-84 -131.5t-125.5 -91t-169.5 -39v262q44 7 73.5 39t42 84t17 97t4.5 104q0 39 -2 71t-8 66.5t-17.5 60.5t-29 47.5t-44 33t-60.5 11.5q-58 0 -109 -31zM584 1548v266q135 -6 229 -75.5t137.5 -177.5t43.5 -245v-31h-295q-2 237 -115 263z" />
<glyph unicode="7" horiz-adv-x="805" d="M31 1516v266h452l-56 -266h-396zM154 0l380 1782h248v-165l-355 -1617h-273z" />
<glyph unicode="8" horiz-adv-x="1094" d="M91 513q0 152 40 257t132 173q-77 64 -116 165t-39 224q0 141 44.5 246.5t140.5 169t237 68.5v-243q-118 -19 -118 -217q0 -273 118 -301v-244q-142 -28 -142 -314q0 -45 2.5 -79.5t11.5 -72t23.5 -62.5t41.5 -43.5t63 -22.5v-247q-439 13 -439 543zM580 -30v247 q36 4 62.5 22.5t42 44t24 63t11.5 72t3 78.5q0 287 -143 314v244q119 26 119 301q0 198 -119 217v243q210 -7 315.5 -137t105.5 -347q0 -264 -154 -389q92 -68 133 -173.5t41 -256.5q0 -528 -441 -543z" />
<glyph unicode="9" horiz-adv-x="1108" d="M87 1217q0 92 15 175t49 159.5t84.5 133t127 91.5t170.5 39v-265q-44 -6 -74 -37t-43.5 -81.5t-18 -97t-4.5 -104.5q0 -48 2.5 -85t12.5 -79t26.5 -69.5t46.5 -46t71 -18.5q59 0 111 31v-254q-73 -27 -159 -27q-417 0 -417 535zM111 468v29h296q1 -53 6 -92.5t17.5 -78.5 t38.5 -62.5t64 -29.5v-263q-105 4 -186 43.5t-131 107.5t-76 155t-29 191zM583 -28v262q35 7 61 38t38.5 69t20 94.5t9 96t1.5 91.5v636q0 263 -130 289v266q112 -6 198 -58t136.5 -136.5t75.5 -186.5t25 -217v-606q0 -96 -12 -181.5t-43 -168.5t-79 -143.5t-125 -100 t-176 -44.5z" />
<glyph unicode=":" horiz-adv-x="497" d="M105 179v284h290v-284h-290zM105 878v286h290v-286h-290z" />
<glyph unicode=";" horiz-adv-x="490" d="M94 172v287h292v-137q0 -57 -1 -96t-5.5 -84.5t-12 -74.5t-21.5 -59t-34 -46.5t-49 -27t-66 -10.5q-25 0 -39 2l-37 141q56 6 71 26t16 79h-114zM95 878v286h291v-286h-291z" />
<glyph unicode="&#x3c;" horiz-adv-x="834" d="M74 518v261l653 456v-264l-452 -321q91 -66 245 -176t207 -148v-264q-621 433 -653 456z" />
<glyph unicode="=" horiz-adv-x="759" d="M83 257v198h588v-198h-588zM83 581v199h588v-199h-588z" />
<glyph unicode="&#x3e;" horiz-adv-x="834" d="M112 62v264l451 324q-23 16 -226 160.5t-225 160.5v265q620 -435 652 -457v-261z" />
<glyph unicode="?" horiz-adv-x="950" d="M43 1389q0 187 105.5 303t300.5 123v-257q-58 -10 -91 -62t-33 -128q0 -80 14 -128l-273 -46q-23 86 -23 195zM263 0v292h300v-292h-300zM268 534v97q0 82 37 164t90 150t106 135.5t90 146t37 156.5q0 79 -34.5 123t-94.5 52v257q196 -8 308.5 -123.5t112.5 -323.5 q0 -87 -37.5 -176.5t-90.5 -163.5t-106 -144.5t-90.5 -143t-37.5 -135.5v-71h-290z" />
<glyph unicode="@" horiz-adv-x="1662" d="M81 808q0 247 92.5 433t268 287.5t412.5 101.5v-200q-240 0 -378.5 -163.5t-138.5 -459.5q0 -337 129.5 -510.5t418.5 -186.5v-201q-417 12 -610.5 233t-193.5 666zM461 743q0 70 9 138t31.5 135.5t56 118.5t86 82.5t118.5 31.5q50 0 93 -23v-182q-4 1 -12 1 q-30 0 -52.5 -13t-35.5 -38.5t-21.5 -51t-11.5 -64.5t-4 -63t-1 -61q0 -212 106 -212q14 0 31 5l81 -192q-64 -26 -155 -26q-64 0 -118.5 25.5t-90.5 67t-61.5 95.5t-37 111.5t-11.5 114.5zM905 576v665h255v-583v-22q0 -81 43 -92v-215q-152 2 -225 65zM905 1427v201 q334 -19 510.5 -234.5t176.5 -580.5q0 -130 -36 -235t-114.5 -173.5t-188.5 -74.5v217q45 20 63.5 97t18.5 167q0 288 -100 442.5t-330 173.5z" />
<glyph unicode="A" horiz-adv-x="1100" d="M25 0l378 1782l121 -668l-86 -530h182l27 -185h-232l-77 -399h-313zM455 1782h242l378 -1782h-305l-198 1135z" />
<glyph unicode="B" horiz-adv-x="1115" d="M116 0v1782h316v-1782h-316zM482 0v226h38q56 0 95.5 14t63.5 38t37.5 66t18 88t4.5 114q0 70 -10 123.5t-34 97t-67.5 66.5t-106.5 23h-39v211h51q51 0 87 20.5t54.5 58.5t26 82t7.5 102q0 76 -13.5 124t-43.5 72.5t-66 32.5t-93 8h-10v215h4q121 0 211.5 -23t161 -74.5 t107 -142t36.5 -218.5q0 -261 -253 -351q106 -28 174.5 -96.5t96 -154.5t27.5 -195q0 -263 -119.5 -395t-377.5 -132h-68z" />
<glyph unicode="C" horiz-adv-x="1152" d="M92 578v624q0 597 478 613v-247q-162 -18 -162 -288v-779q0 -270 162 -288v-246q-478 16 -478 611zM620 -33v247q45 6 76 35.5t46 77.5t20.5 97t5.5 111v170h309v-137q-8 -584 -457 -601zM620 1567v248q124 -4 214 -49.5t142 -125t76.5 -180.5t24.5 -228v-136h-310v152 q0 61 -5 108.5t-19.5 96t-45.5 78.5t-77 36z" />
<glyph unicode="D" horiz-adv-x="1148" d="M116 0v1782h316v-1782h-316zM482 0v225h9q146 0 197 43.5t51 168.5v925q0 105 -57 149t-186 45h-14v226h12q112 0 197.5 -15t147.5 -47.5t104 -77.5t67 -111t35.5 -141.5t10.5 -174.5v-615q0 -88 -6 -156t-22 -132.5t-43.5 -111t-70 -86t-102 -63.5t-139.5 -37.5 t-182 -13.5h-9z" />
<glyph unicode="E" horiz-adv-x="871" d="M116 0v1782h316v-1782h-316zM482 0v221h351v-221h-351zM482 810v225h235v-225h-235zM482 1561v221h351v-221h-351z" />
<glyph unicode="F" horiz-adv-x="842" d="M116 0v1782h316v-1782h-316zM482 810v225h235v-225h-235zM482 1561v221h351v-221h-351z" />
<glyph unicode="G" horiz-adv-x="1211" d="M92 545v655q0 597 486 614v-247q-49 -6 -84 -33t-53 -69t-25.5 -85.5t-7.5 -94.5v-795q0 -254 166 -276v-246q-9 -1 -26 -1q-103 0 -184 36.5t-131 94t-82.5 135.5t-45.5 154.5t-13 157.5zM623 -25v238q171 14 171 284v177h-129v229h445v-903h-209l-46 135 q-34 -60 -96 -102t-136 -58zM628 1568v247q471 -13 471 -594v-85h-305v100q0 52 -2.5 90t-12 84.5t-26.5 77t-49 53t-76 27.5z" />
<glyph unicode="H" horiz-adv-x="1187" d="M116 0v1782h317l-1 -1782h-316zM482 810v202h271v770h319v-1782h-319v810h-271z" />
<glyph unicode="I" horiz-adv-x="548" d="M115 0v1782h317v-1782h-317z" />
<glyph unicode="J" horiz-adv-x="612" d="M3 -26v224q78 0 113 16t50 63.5t15 151.5v1353h316v-1355q0 -98 -8.5 -164.5t-33 -125t-69 -92t-115.5 -52.5t-172 -19h-96z" />
<glyph unicode="K" horiz-adv-x="1147" d="M116 0v1782h316v-1782h-316zM482 857v237l272 688h351l-364 -801l403 -981h-329z" />
<glyph unicode="L" horiz-adv-x="837" d="M116 0v1782h316v-1782h-316zM482 0v221h336v-221h-336z" />
<glyph unicode="M" horiz-adv-x="1518" d="M116 0v1782h245v-1782h-245zM411 871v910h18l441 -1781h-215zM784 562l302 1219h21v-910l-220 -730zM1157 0v1782h245v-1782h-245z" />
<glyph unicode="N" horiz-adv-x="1183" d="M116 0v1783h229l43 -104v-1679h-272zM438 949v609l316 -690v-637zM804 105v1678h263v-1783h-221z" />
<glyph unicode="O" d="M92 571v631q0 597 481 613v-247q-165 -18 -165 -288v-780q0 -269 165 -287v-246q-106 3 -189.5 36t-137.5 87t-89 130.5t-50 162.5t-15 188zM623 -33v246q166 18 166 287v780q0 270 -166 288v247q483 -16 483 -613v-624q0 -102 -14.5 -188.5t-50 -164t-90 -132.5 t-138 -88.5t-190.5 -37.5z" />
<glyph unicode="P" horiz-adv-x="1028" d="M116 0v1782h316v-1782h-316zM432 1554h50v228h66q439 0 439 -499q0 -274 -121.5 -393.5t-371.5 -120.5h-12v227h26q48 0 80.5 12t51.5 32.5t29 60t13 80t3 107.5q0 56 -3.5 91t-18 72t-41 57t-74 33t-116.5 13z" />
<glyph unicode="Q" horiz-adv-x="1205" d="M92 571v631q0 597 483 613v-248q-48 -6 -82.5 -33.5t-52 -69.5t-25 -87t-7.5 -97v-779q0 -266 167 -287v-249q-126 4 -220.5 51t-151 129t-84 188.5t-27.5 237.5zM625 -35v248q52 4 87.5 30t52.5 69.5t23.5 88t6.5 100.5v779q0 272 -170 288v247q486 -12 486 -613v-624 q0 -367 -211 -532q37 -64 184 -78v-197q-77 1 -140.5 19.5t-108.5 50.5t-74 62t-56 70q-43 -7 -80 -8z" />
<glyph unicode="R" horiz-adv-x="1119" d="M116 0v1782h316v-1782h-316zM482 831v200h99q38 0 68 19t46.5 47.5t26.5 66t13.5 68t3.5 61.5q0 40 -5.5 78.5t-19.5 81.5t-44.5 69t-74.5 26h-113v234h44q528 0 528 -467q0 -42 -1 -71t-6 -70t-13.5 -71t-25 -66t-40 -63t-58.5 -53.5t-80 -46.5l253 -874h-323l-207 831 h-71z" />
<glyph unicode="S" horiz-adv-x="1054" d="M62 493l317 64q10 -308 141 -343v-248q-88 5 -162 36t-125.5 80.5t-88.5 116t-56.5 140t-25.5 154.5zM64 1365q0 198 121 318t322 132v-243q-64 -6 -98 -54.5t-34 -118.5q0 -84 39.5 -150t111.5 -130q18 -16 88 -82l-213 -213l-72 68q-49 43 -79.5 72.5t-70 77.5 t-61.5 91.5t-38 104t-16 127.5zM437 791l212 211l37 -33q74 -69 124 -125t97 -128t70.5 -154.5t23.5 -176.5q0 -183 -124 -298.5t-307 -121.5v244q124 8 124 163q0 181 -217 382zM557 1569v247q183 -4 306.5 -130t131.5 -313v-37l-321 -50q0 9 1 29t1 31q-4 81 -32.5 144 t-86.5 79z" />
<glyph unicode="T" horiz-adv-x="884" d="M5 1544v238h874v-238h-874zM285 0v1494h317v-1494h-317z" />
<glyph unicode="U" horiz-adv-x="1223" d="M106 614v1168h317v-1167q0 -85 3.5 -141.5t13 -108t28 -81t48.5 -48.5t73 -23v-246q-86 2 -156 22t-120 52t-87 80t-59.5 100.5t-36.5 120t-19 131.5t-5 141zM639 -33v245q33 2 57.5 12t42 24.5t29 43t18.5 55t10 74t4 87.5t1 107v1167h316v-1168q0 -78 -4.5 -142 t-18 -131.5t-35.5 -120t-58.5 -100.5t-85.5 -80t-119 -51.5t-157 -21.5z" />
<glyph unicode="V" horiz-adv-x="1053" d="M27 1782h304l167 -1035l-130 -747zM419 0l306 1782h301l-356 -1782h-251z" />
<glyph unicode="W" horiz-adv-x="1475" d="M32 1782h273l113 -931l133 -851h-259zM469 852l122 797l109 -685l-114 -867zM622 1782h240l141 -932l133 -850h-236zM1056 850l114 932h273l-258 -1782z" />
<glyph unicode="X" horiz-adv-x="1078" d="M4 1782h332l706 -1782h-334zM5 0l308 864l156 -394l-167 -470h-297zM564 1341l140 441h303l-283 -842z" />
<glyph unicode="Y" horiz-adv-x="1002" d="M2 1782h291l361 -1443v-339h-308v581zM529 1052l125 730h346l-346 -1236z" />
<glyph unicode="Z" horiz-adv-x="975" d="M77 0v219l588 1563h228v-210l-589 -1572h-227zM134 1560v222h477l-84 -222h-393zM357 0l84 221h452v-221h-536z" />
<glyph unicode="[" horiz-adv-x="715" d="M155 -64v1942h257v-1942h-257zM462 -64v141h191v-141h-191zM462 1738v140h191v-140h-191z" />
<glyph unicode="\" horiz-adv-x="631" d="M50 1816h256l277 -1816h-256z" />
<glyph unicode="]" horiz-adv-x="678" d="M65 54h187v-118h-187v118zM65 1721v118h187v-118h-187zM303 -64v1903h233v-1903h-233z" />
<glyph unicode="^" horiz-adv-x="912" d="M60 905l261 560h131v-204l-127 -356h-265zM502 1261v204h131q246 -532 261 -560h-265z" />
<glyph unicode="_" horiz-adv-x="848" d="M30 0v199h782v-199h-782z" />
<glyph unicode="`" horiz-adv-x="595" d="M-61 1740h304l273 -362h-211z" />
<glyph unicode="a" horiz-adv-x="1100" d="M25 0l378 1782h242l-117 -647l-198 -1135h-305zM453 399l27 185h182l-86 530l121 668l378 -1782h-313l-77 399h-232z" />
<glyph unicode="b" horiz-adv-x="1115" d="M116 0v1782h316v-1782h-316zM482 0v226h38q56 0 95.5 14t63.5 38t37.5 66t18 88t4.5 114q0 70 -10 123.5t-34 97t-67.5 66.5t-106.5 23h-39v211h51q51 0 87 20.5t54.5 58.5t26 82t7.5 102q0 76 -13.5 124t-43.5 72.5t-66 32.5t-93 8h-10v215h4q121 0 211.5 -23t161 -74.5 t107 -142t36.5 -218.5q0 -261 -253 -351q106 -28 174.5 -96.5t96 -154.5t27.5 -195q0 -263 -119.5 -395t-377.5 -132h-68z" />
<glyph unicode="c" horiz-adv-x="1152" d="M92 578v624q0 597 478 613v-247q-162 -18 -162 -288v-779q0 -270 162 -288v-246q-478 16 -478 611zM620 -33v247q45 6 76 35.5t46 77.5t20.5 97t5.5 111v170h309v-137q-8 -584 -457 -601zM620 1567v248q124 -4 214 -49.5t142 -125t76.5 -180.5t24.5 -228v-136h-310v152 q0 61 -5 108.5t-19.5 96t-45.5 78.5t-77 36z" />
<glyph unicode="d" horiz-adv-x="1148" d="M116 0v1782h316v-1782h-316zM482 0v225h9q146 0 197 43.5t51 168.5v925q0 105 -57 149t-186 45h-14v226h12q112 0 197.5 -15t147.5 -47.5t104 -77.5t67 -111t35.5 -141.5t10.5 -174.5v-615q0 -88 -6 -156t-22 -132.5t-43.5 -111t-70 -86t-102 -63.5t-139.5 -37.5 t-182 -13.5h-9z" />
<glyph unicode="e" horiz-adv-x="871" d="M116 0v1782h316v-1782h-316zM482 0v221h351v-221h-351zM482 810v225h235v-225h-235zM482 1561v221h351v-221h-351z" />
<glyph unicode="f" horiz-adv-x="842" d="M116 0v1782h316v-1782h-316zM482 810v225h235v-225h-235zM482 1561v221h351v-221h-351z" />
<glyph unicode="g" horiz-adv-x="1211" d="M92 545v655q0 597 486 614v-247q-49 -6 -84 -33t-53 -69t-25.5 -85.5t-7.5 -94.5v-795q0 -254 166 -276v-246q-9 -1 -26 -1q-103 0 -184 36.5t-131 94t-82.5 135.5t-45.5 154.5t-13 157.5zM623 -25v238q171 14 171 284v177h-129v229h445v-903h-209l-46 135 q-34 -60 -96 -102t-136 -58zM628 1568v247q471 -13 471 -594v-85h-305v100q0 52 -2.5 90t-12 84.5t-26.5 77t-49 53t-76 27.5z" />
<glyph unicode="h" horiz-adv-x="1187" d="M116 0v1782h317l-1 -1782h-316zM482 810v202h271v770h319v-1782h-319v810h-271z" />
<glyph unicode="i" horiz-adv-x="548" d="M115 0v1782h317v-1782h-317z" />
<glyph unicode="j" horiz-adv-x="612" d="M3 -26v224q78 0 113 16t50 63.5t15 151.5v1353h316v-1355q0 -98 -8.5 -164.5t-33 -125t-69 -92t-115.5 -52.5t-172 -19h-96z" />
<glyph unicode="k" horiz-adv-x="1147" d="M116 0v1782h316v-1782h-316zM482 857v237l272 688h351l-364 -801l403 -981h-329z" />
<glyph unicode="l" horiz-adv-x="837" d="M116 0v1782h316v-1782h-316zM482 0v221h336v-221h-336z" />
<glyph unicode="m" horiz-adv-x="1518" d="M116 0v1782h245v-1782h-245zM411 871v910h18l330 -1332l327 1332h21v-910l-263 -871h-170zM1157 0v1782h245v-1782h-245z" />
<glyph unicode="n" horiz-adv-x="1183" d="M116 0v1783h229l43 -104v-1679h-272zM438 949v609l316 -690v-637zM804 105v1678h263v-1783h-221z" />
<glyph unicode="o" d="M92 571v631q0 597 481 613v-247q-165 -18 -165 -288v-780q0 -269 165 -287v-246q-106 3 -189.5 36t-137.5 87t-89 130.5t-50 162.5t-15 188zM623 -33v246q166 18 166 287v780q0 270 -166 288v247q483 -16 483 -613v-624q0 -102 -14.5 -188.5t-50 -164t-90 -132.5 t-138 -88.5t-190.5 -37.5z" />
<glyph unicode="p" horiz-adv-x="1028" d="M116 0v1782h316v-1782h-316zM432 1554h50v228h66q439 0 439 -499q0 -274 -121.5 -393.5t-371.5 -120.5h-12v227h26q48 0 80.5 12t51.5 32.5t29 60t13 80t3 107.5q0 56 -3.5 91t-18 72t-41 57t-74 33t-116.5 13z" />
<glyph unicode="q" horiz-adv-x="1205" d="M92 571v631q0 597 483 613v-248q-48 -6 -82.5 -33.5t-52 -69.5t-25 -87t-7.5 -97v-779q0 -266 167 -287v-249q-126 4 -220.5 51t-151 129t-84 188.5t-27.5 237.5zM625 -35v248q52 4 87.5 30t52.5 69.5t23.5 88t6.5 100.5v779q0 272 -170 288v247q486 -12 486 -613v-624 q0 -367 -211 -532q37 -64 184 -78v-197q-77 1 -140.5 19.5t-108.5 50.5t-74 62t-56 70q-43 -7 -80 -8z" />
<glyph unicode="r" horiz-adv-x="1119" d="M116 0v1782h316v-1782h-316zM482 831v200h99q38 0 68 19t46.5 47.5t26.5 66t13.5 68t3.5 61.5q0 40 -5.5 78.5t-19.5 81.5t-44.5 69t-74.5 26h-113v234h44q528 0 528 -467q0 -42 -1 -71t-6 -70t-13.5 -71t-25 -66t-40 -63t-58.5 -53.5t-80 -46.5l253 -874h-323l-207 831 h-71z" />
<glyph unicode="s" horiz-adv-x="1054" d="M62 493l317 64q10 -308 141 -343v-248q-88 5 -162 36t-125.5 80.5t-88.5 116t-56.5 140t-25.5 154.5zM64 1365q0 198 121 318t322 132v-243q-64 -6 -98 -54.5t-34 -118.5q0 -84 39.5 -150t111.5 -130q18 -16 88 -82l-213 -213l-72 68q-49 43 -79.5 72.5t-70 77.5 t-61.5 91.5t-38 104t-16 127.5zM437 791l212 211l37 -33q74 -69 124 -125t97 -128t70.5 -154.5t23.5 -176.5q0 -183 -124 -298.5t-307 -121.5v244q124 8 124 163q0 181 -217 382zM557 1569v247q183 -4 306.5 -130t131.5 -313v-37l-321 -50q0 9 1 29t1 31q-4 81 -32.5 144 t-86.5 79z" />
<glyph unicode="t" horiz-adv-x="884" d="M5 1544v238h874v-238h-874zM285 0v1494h317v-1494h-317z" />
<glyph unicode="u" horiz-adv-x="1223" d="M106 614v1168h317v-1167q0 -85 3.5 -141.5t13 -108t28 -81t48.5 -48.5t73 -23v-246q-86 2 -156 22t-120 52t-87 80t-59.5 100.5t-36.5 120t-19 131.5t-5 141zM639 -33v245q33 2 57.5 12t42 24.5t29 43t18.5 55t10 74t4 87.5t1 107v1167h316v-1168q0 -78 -4.5 -142 t-18 -131.5t-35.5 -120t-58.5 -100.5t-85.5 -80t-119 -51.5t-157 -21.5z" />
<glyph unicode="v" horiz-adv-x="1053" d="M27 1782h304l167 -1035l-130 -747zM419 0l306 1782h301l-356 -1782h-251z" />
<glyph unicode="w" horiz-adv-x="1475" d="M32 1782h273l113 -931l133 -851h-259zM469 852l142 930h251l141 -932l133 -850h-231l-167 1254l-152 -1157zM1056 850l114 932h273l-258 -1782z" />
<glyph unicode="x" horiz-adv-x="1078" d="M4 1782h332l706 -1782h-334zM5 0l308 864l156 -394l-167 -470h-297zM564 1341l140 441h303l-283 -842z" />
<glyph unicode="y" horiz-adv-x="1002" d="M2 1782h291l361 -1443v-339h-308v581zM529 1052l125 730h346l-346 -1236z" />
<glyph unicode="z" horiz-adv-x="975" d="M77 0v219l588 1563h228v-210l-589 -1572h-227zM134 1560v222h477l-84 -222h-393zM357 0l84 221h452v-221h-536z" />
<glyph unicode="{" horiz-adv-x="708" d="M62 776v265q42 0 70 24t40 67t16 81t4 88v66q0 147 20 240.5t71.5 156.5t138 89t222.5 26v-198q-42 0 -73 -6.5t-52.5 -14.5t-35.5 -31t-21.5 -39.5t-11 -57t-4 -67t-0.5 -85.5q0 -52 -3.5 -100.5t-15 -107t-30 -106t-51 -90.5t-74.5 -67q51 -25 86 -64.5t52 -91t24 -98 t10 -108.5q1 -21 2 -63q2 -77 4.5 -114t13.5 -91.5t31 -79.5t57 -44.5t92 -19.5v-197q-115 0 -197 29.5t-131 79t-77 131t-37.5 166.5t-9.5 205v61q0 40 -3.5 65.5t-16 51t-40 37.5t-70.5 12z" />
<glyph unicode="|" horiz-adv-x="426" d="M138 -130v2052h198v-2052h-198z" />
<glyph unicode="}" horiz-adv-x="710" d="M60 -62v197q35 0 62.5 6.5t47 21t34 31.5t23.5 43.5t15 51.5t9 61t4.5 66.5t2.5 73.5q1 25 1 37q2 66 8.5 114.5t23.5 103t52.5 96t88.5 68.5q-52 29 -88.5 85t-54 126t-24.5 132.5t-7 127.5v61q0 20 -1.5 52t-4 47t-7.5 38t-12 33.5t-18 25t-25.5 20.5t-33.5 13t-42.5 9 t-53.5 2v198q136 0 222.5 -26t138 -89t71.5 -156.5t20 -240.5q0 -8 -0.5 -30.5t-0.5 -35.5q0 -50 4 -88t16 -81t40 -67t71 -24v-265q-43 0 -70.5 -12t-40 -37.5t-16.5 -51t-4 -65.5q0 -10 0.5 -30t0.5 -31q0 -120 -9.5 -205.5t-37.5 -166.5t-77 -130.5t-131 -79t-197 -29.5z " />
<glyph unicode="~" horiz-adv-x="980" d="M130 868q0 53 12 100.5t36.5 88.5t69 65.5t103.5 24.5q55 0 153 -42.5t130 -42.5q41 0 43 69h167q0 -51 -11.5 -98t-36 -89.5t-69 -68t-104.5 -25.5q-59 0 -159 43t-127 43q-38 0 -40 -68h-167z" />
<glyph unicode="&#xa1;" horiz-adv-x="504" d="M100 0l99 1336h102l109 -1336h-310zM105 1495v286h292v-286h-292z" />
<glyph unicode="&#xa2;" horiz-adv-x="1152" d="M35 678v324q0 597 478 613v-247q-162 -18 -162 -288v-479q0 -270 162 -288v-246q-478 16 -478 611zM484 10h110v-198h-110v198zM484 1663v198h110v-198h-110zM563 67v247q45 6 76 35.5t46 77.5t20.5 97t5.5 111v70h309v-37q-8 -584 -457 -601zM563 1367v248 q124 -4 214 -49.5t142 -125t76.5 -180.5t24.5 -228v-96h-310v112q0 61 -5 108.5t-19.5 96t-45.5 78.5t-77 36z" />
<glyph unicode="&#xa3;" horiz-adv-x="1070" d="M78 0v159l122 57v519h-122v225h122v246q0 64 3 116t12.5 116.5t26 114t46 100t70 83.5t100.5 54.5t134 23.5v-248q-13 -3 -24 -13t-18.5 -28t-13 -35.5t-8.5 -48t-5 -52t-3 -60t-1 -59.5v-62v-13v-1195h-441zM569 0v246h405v-246h-405zM569 735v226h203v-226h-203z M642 1559v254q66 -3 119 -22t88 -46t60.5 -68.5t39 -81t21.5 -93t10 -94.5t2 -95h-281q0 56 -2 93.5t-16 87t-41 65.5z" />
<glyph unicode="&#xa4;" horiz-adv-x="1048" d="M131 492l84 94q-80 103 -80 253q0 145 79 249l-83 93l82 78l83 -92q85 55 204 61v-153q-94 -9 -143.5 -77t-49.5 -159t51.5 -160t141.5 -79v-152q-119 6 -203 60l-84 -94zM550 448v152q93 10 142.5 78.5t49.5 159.5t-49.5 159.5t-142.5 77.5v153q119 -6 207 -63l84 94 l82 -78l-86 -96q77 -102 77 -246q0 -146 -78 -250l87 -97l-82 -78l-85 96q-87 -56 -206 -62z" />
<glyph unicode="&#xa5;" horiz-adv-x="1053" d="M2 1782h291l339 -1355h216v-175h-194v-252h-308v252h-190v175h190v125h-190v172h149zM529 1052l125 730h346l-298 -1058h146v-172h-194z" />
<glyph unicode="&#xa6;" horiz-adv-x="433" d="M107 -15v640h211v-640h-211zM107 898v639h211v-639h-211z" />
<glyph unicode="&#xa7;" horiz-adv-x="985" d="M96 337l197 66q16 -45 37 -84.5t57 -77t76 -46.5v-214q-145 9 -236.5 106t-130.5 250zM99 948q0 99 50.5 171t145.5 108q-188 129 -188 262q0 158 98.5 245.5t257.5 94.5v-212q-47 -7 -73 -40t-26 -85q0 -69 82 -127l17 -11v-295q-66 0 -91.5 -25.5t-25.5 -72.5 q0 -46 31 -81.5t86 -72.5v-270q-25 17 -78.5 50t-85 53t-74.5 56.5t-67 69.5t-41.5 80.5t-17.5 101.5zM511 775q112 0 112 99q0 60 -110 160l-1 289q47 -30 74 -48t71 -50t70 -56.5t58 -61t49.5 -70t30 -76t12.5 -87.5q0 -93 -39 -152.5t-128 -91.5q70 -48 114.5 -136 t44.5 -172q0 -159 -98.5 -247.5t-257.5 -94.5v213q51 5 76.5 38.5t25.5 89.5q0 101 -102 188zM513 1615v214q142 -8 233 -104t126 -246l-201 -66q-60 180 -158 202z" />
<glyph unicode="&#xa8;" horiz-adv-x="898" d="M115 1468v280h277v-280h-277zM553 1468v280h277v-280h-277z" />
<glyph unicode="&#xa9;" horiz-adv-x="1565" d="M79 708q0 188 85.5 350.5t242 264t349.5 106.5v-160q-147 -5 -263 -86.5t-177 -208t-61 -269.5t61 -268.5t177 -207t263 -87.5v-154q-193 5 -349.5 106t-242 263.5t-85.5 350.5zM485 705q0 48 0.5 77t3 74.5t7.5 74t14.5 67t23 63t34 51.5t46.5 43t62 27.5t80 14.5v-154 q-55 -12 -76.5 -84.5t-21.5 -242.5q0 -129 10.5 -201.5t31 -102t56.5 -35.5v-156q-43 2 -79 13.5t-62.5 27t-47 42.5t-34 51.5t-23 62t-14.5 66.5t-7.5 73t-3 73t-0.5 75zM806 -11v154q108 6 201 55.5t155.5 127t98 176t35.5 203.5t-35.5 203.5t-98 176t-155.5 127 t-201 56.5v160q144 -6 269.5 -67.5t212 -159t136.5 -226t50 -267.5q0 -186 -84.5 -347t-238.5 -262.5t-345 -109.5zM806 221v158q21 7 36 25t22 38.5t11.5 51t5 49.5t0.5 47h183q0 -53 -7.5 -101.5t-26.5 -96t-47.5 -83.5t-74 -60t-102.5 -28zM806 1044v154q62 -3 109 -26.5 t75 -58t45.5 -82t23.5 -92t6 -93.5h-185q-1 35 -2.5 57t-8 57t-22.5 56.5t-41 27.5z" />
<glyph unicode="&#xaa;" horiz-adv-x="1100" d="M25 0l378 1782h242l-117 -647l-198 -1135h-305zM453 399l27 185h182l-86 530l121 668l378 -1782h-313l-77 399h-232z" />
<glyph unicode="&#xab;" horiz-adv-x="1014" d="M79 576v128l434 499v-294l-260 -268l260 -270v-294zM496 576v128l435 499v-294l-260 -268l260 -270v-294z" />
<glyph unicode="&#xac;" horiz-adv-x="791" d="M128 452v199h523v-393h-135v194h-388z" />
<glyph unicode="&#xad;" horiz-adv-x="772" d="M136 436v224h519v-224h-519z" />
<glyph unicode="&#xae;" horiz-adv-x="1565" d="M79 708q0 187 85 349.5t241 264t348 107.5v-160q-146 -6 -261.5 -87.5t-176 -207.5t-60.5 -269q0 -142 61 -267t176.5 -206.5t260.5 -88.5v-155q-144 5 -271 65.5t-214.5 158.5t-138 227.5t-50.5 268.5zM527 281v883h161v-883h-161zM738 664v108q78 2 110 30t32 104 q0 131 -124 131h-18v127h32q275 0 275 -261q0 -69 -34 -122t-97 -83l146 -417h-175l-120 383h-27zM803 -12v155q145 7 259.5 88.5t174 206.5t59.5 267q0 141 -60 266t-174.5 207t-258.5 90v160q144 -5 270 -66t213.5 -159t137.5 -227t50 -268t-50 -268t-137.5 -227 t-213.5 -159t-270 -66z" />
<glyph unicode="&#xaf;" horiz-adv-x="490" d="M1 1440v176h493v-176h-493z" />
<glyph unicode="&#xb0;" horiz-adv-x="993" d="M129 1469q0 157 89.5 255t245.5 105v-172q-71 -8 -108 -60.5t-37 -127.5q0 -74 37.5 -127.5t107.5 -62.5v-171q-156 7 -245.5 105.5t-89.5 255.5zM514 1108v171q71 9 109.5 62.5t38.5 126.5q0 74 -38 127t-110 62v173q158 -7 248.5 -105t90.5 -256q0 -157 -90.5 -255.5 t-248.5 -105.5z" />
<glyph unicode="&#xb1;" horiz-adv-x="852" d="M130 0v199h586v-199h-586zM130 581v199h193v194h201v-194h192v-199h-192v-193h-201v193h-193z" />
<glyph unicode="&#xb2;" horiz-adv-x="711" d="M77 584v137q60 77 97 126.5t106 147.5t106 172.5t37 117.5q0 112 -43 131v151q118 -7 182.5 -81.5t64.5 -200.5q0 -108 -144 -304l-293 -397h-113zM77 1262q0 135 65 216t188 89v-151q-22 -10 -33.5 -40t-13 -53t-1.5 -61h-205zM253 584l109 148h262v-148h-371z" />
<glyph unicode="&#xb3;" horiz-adv-x="816" d="M129 939h201q0 -39 1.5 -62.5t14 -54t35.5 -38.5v-149q-123 7 -187.5 88t-64.5 216zM129 1313q0 135 64.5 216t187.5 89l1 -149q-24 -9 -36.5 -39.5t-14 -54t-1.5 -62.5h-201zM338 1061v142q74 5 105.5 35.5t31.5 97.5q0 109 -43 131v151q117 -8 181 -83t64 -197 q0 -72 -36 -125.5t-102 -81.5q65 -29 101.5 -85t36.5 -127q0 -124 -64 -199.5t-181 -84.5v152q43 20 43 132q0 69 -33 104t-104 38z" />
<glyph unicode="&#xb4;" horiz-adv-x="595" d="M109 1378l273 362h304l-366 -362h-211z" />
<glyph unicode="&#xb6;" horiz-adv-x="1009" d="M23 1218q0 89 31 155t87.5 105t130.5 58t166 19h480v-1555h-186v885h-135v-885h-204v885q-163 2 -266.5 90.5t-103.5 242.5z" />
<glyph unicode="&#xb7;" horiz-adv-x="503" d="M106 685v284h292v-284h-292z" />
<glyph unicode="&#xb8;" horiz-adv-x="555" d="M127 -385h9q196 -1 196 47q0 9 -3.5 18t-11 17.5t-14.5 16t-19.5 15.5t-20.5 13t-23 12l-21 11q-6 3 -21 9.5t-17 7.5v93l147 -1q203 -100 203 -217q0 -181 -404 -181v139z" />
<glyph unicode="&#xb9;" horiz-adv-x="553" d="M28 1251v146q75 37 130 75v-206q-20 -4 -74 -9t-56 -6zM208 635v866q71 52 117 113h87v-979h-204z" />
<glyph unicode="&#xba;" d="M92 571v631q0 597 481 613v-247q-165 -18 -165 -288v-780q0 -269 165 -287v-246q-106 3 -189.5 36t-137.5 87t-89 130.5t-50 162.5t-15 188zM623 -33v246q166 18 166 287v780q0 270 -166 288v247q483 -16 483 -613v-624q0 -102 -14.5 -188.5t-50 -164t-90 -132.5 t-138 -88.5t-190.5 -37.5z" />
<glyph unicode="&#xbb;" horiz-adv-x="1013" d="M86 77v294l261 270l-261 268v294l435 -499v-128zM504 77v294l260 270l-260 268v294l434 -499v-128z" />
<glyph unicode="&#xbc;" horiz-adv-x="1651" d="M33 1252v146q75 37 130 75v-206q-20 -4 -74 -9t-56 -6zM213 636v866q71 52 117 113h87v-979h-204zM407 0l571 1810h173l-573 -1810h-171zM943 264v137l302 629h161l-270 -620h74v-146h-267zM1260 1v568l200 461h3v-1029h-203zM1513 264v146h81v-146h-81z" />
<glyph unicode="&#xbd;" horiz-adv-x="1699" d="M33 1252v146q75 37 130 75v-206q-20 -4 -74 -9t-56 -6zM213 636v866q71 52 117 113h87v-979h-204zM434 0l571 1810h172l-572 -1810h-171zM1080 -1v137q60 77 97 126.5t106 147.5t106 172.5t37 117.5q0 112 -43 131v151q118 -7 182.5 -81.5t64.5 -200.5q0 -108 -144 -304 l-293 -397h-113zM1080 677q0 135 65 216t188 89v-151q-22 -10 -33.5 -40t-13 -53t-1.5 -61h-205zM1256 -1l109 148h262v-148h-371z" />
<glyph unicode="&#xbe;" horiz-adv-x="1894" d="M129 939h201q0 -39 1.5 -62.5t14 -54t35.5 -38.5v-149q-123 7 -187.5 88t-64.5 216zM129 1313q0 135 64.5 216t187.5 89l1 -149q-24 -9 -36.5 -39.5t-14 -54t-1.5 -62.5h-201zM338 1061v142q74 5 105.5 35.5t31.5 97.5q0 109 -43 131v151q117 -8 181 -83t64 -197 q0 -72 -36 -125.5t-102 -81.5q65 -29 101.5 -85t36.5 -127q0 -124 -64 -199.5t-181 -84.5v152q43 20 43 132q0 69 -33 104t-104 38zM600 0l571 1810h173l-573 -1810h-171zM1133 264v137l302 629h161l-270 -620h74v-146h-267zM1450 1v568l200 461h3v-1029h-203zM1703 264v146 h81v-146h-81z" />
<glyph unicode="&#xbf;" horiz-adv-x="1099" d="M195 414q0 87 37.5 176.5t90.5 163.5t106 144.5t90.5 143t37.5 135.5v71h290v-97q0 -82 -37 -164t-90 -150t-106 -135.5t-90 -146t-37 -156.5q0 -79 34.5 -123t94.5 -52v-257q-196 8 -308.5 123.5t-112.5 323.5zM552 1490v292h300v-292h-300zM666 -33v257q58 10 91 62 t33 128q0 80 -14 128l273 46q23 -86 23 -195q0 -187 -105.5 -303t-300.5 -123z" />
<glyph unicode="&#xc0;" horiz-adv-x="1101" d="M25 0l378 1782l121 -668l-86 -530h182l27 -185h-232l-77 -399h-313zM63 2242h304l273 -362h-211zM455 1782h242l378 -1782h-305l-198 1135z" />
<glyph unicode="&#xc1;" horiz-adv-x="1101" d="M25 0l378 1782l121 -668l-86 -530h182l27 -185h-232l-77 -399h-313zM447 1880l273 362h304l-366 -362h-211zM455 1782h242l378 -1782h-305l-198 1135z" />
<glyph unicode="&#xc2;" horiz-adv-x="1101" d="M25 0l378 1782l121 -668l-86 -530h182l27 -185h-232l-77 -399h-313zM103 1872l261 412h131v-204l-127 -208h-265zM455 1782h242l378 -1782h-305l-198 1135zM545 2080v204h131q246 -391 261 -412h-265z" />
<glyph unicode="&#xc3;" horiz-adv-x="1101" d="M25 0l378 1782l121 -668l-86 -530h182l27 -185h-232l-77 -399h-313zM205 1920q0 44 3.5 78.5t15 73t31 63.5t54 42t81.5 17q63 0 157.5 -31t117.5 -31q25 0 33 12t9 39h147q-3 -274 -163 -274q-47 0 -142 37t-137 37q-23 0 -34.5 -10t-14 -20.5t-3.5 -32.5h-155z M455 1782h242l378 -1782h-305l-198 1135z" />
<glyph unicode="&#xc4;" horiz-adv-x="1101" d="M25 0l378 1782l121 -668l-86 -530h182l27 -185h-232l-77 -399h-313zM190 1970v280h277v-280h-277zM455 1782h242l378 -1782h-305l-198 1135zM628 1970v280h277v-280h-277z" />
<glyph unicode="&#xc5;" horiz-adv-x="1101" d="M25 0l378 1782l121 -668l-86 -530h182l27 -185h-232l-77 -399h-313zM287 2129q0 98 60 162t159 72v-113q-34 -11 -51 -46t-17 -74t17 -74.5t51 -46.5v-113q-99 8 -159 72t-60 161zM455 1782h242l378 -1782h-305l-198 1135zM556 1896v112q36 10 52.5 45t16.5 76 q0 39 -17 75.5t-52 46.5v112q99 -8 160.5 -72t61.5 -162q0 -99 -61 -162.5t-161 -70.5z" />
<glyph unicode="&#xc6;" horiz-adv-x="1516" d="M25 0l677 1782h258l-629 -1782h-306zM526 399l69 195h187v532l232 656h64v-1782h-296v399h-256zM1128 0v221h350v-221h-350zM1128 810v225h234v-225h-234zM1128 1561v221h350v-221h-350z" />
<glyph unicode="&#xc7;" horiz-adv-x="1151" d="M92 578v624q0 597 478 613v-247q-162 -18 -162 -288v-779q0 -270 162 -288v-246q-478 16 -478 611zM465 -385h9q196 -1 196 47q0 9 -3.5 18t-11 17.5t-14.5 16t-19.5 15.5t-20.5 13t-23 12l-21 11q-6 3 -21 9.5t-17 7.5v93l147 -1q203 -100 203 -217q0 -181 -404 -181 v139zM620 -33v247q45 6 76 35.5t46 77.5t20.5 97t5.5 111v170h309v-137q-8 -584 -457 -601zM620 1567v248q124 -4 214 -49.5t142 -125t76.5 -180.5t24.5 -228v-136h-310v152q0 61 -5 108.5t-19.5 96t-45.5 78.5t-77 36z" />
<glyph unicode="&#xc8;" horiz-adv-x="871" d="M-24 2255h304l273 -362h-211zM116 0v1782h316v-1782h-316zM482 0v221h351v-221h-351zM482 810v225h235v-225h-235zM482 1561v221h351v-221h-351z" />
<glyph unicode="&#xc9;" horiz-adv-x="871" d="M116 0v1782h316v-1782h-316zM360 1893l273 362h304l-366 -362h-211zM482 0v221h351v-221h-351zM482 810v225h235v-225h-235zM482 1561v221h351v-221h-351z" />
<glyph unicode="&#xca;" horiz-adv-x="871" d="M16 1885l261 412h131v-204l-127 -208h-265zM116 0v1782h316v-1782h-316zM458 2093v204h131q246 -391 261 -412h-265zM482 0v221h351v-221h-351zM482 810v225h235v-225h-235zM482 1561v221h351v-221h-351z" />
<glyph unicode="&#xcb;" horiz-adv-x="871" d="M103 1983v280h277v-280h-277zM116 0v1782h316v-1782h-316zM482 0v221h351v-221h-351zM482 810v225h235v-225h-235zM482 1561v221h351v-221h-351zM541 1983v280h277v-280h-277z" />
<glyph unicode="&#xcc;" horiz-adv-x="548" d="M115 0v1782h317v-1782h-317zM-211 2242h304l273 -362h-211z" />
<glyph unicode="&#xcd;" horiz-adv-x="548" d="M115 0v1782h317v-1782h-317zM173 1880l273 362h304l-366 -362h-211z" />
<glyph unicode="&#xce;" horiz-adv-x="548" d="M115 0v1782h317v-1782h-317zM-171 1872l261 412h131v-204l-127 -208h-265zM271 2080v204h131q246 -391 261 -412h-265z" />
<glyph unicode="&#xcf;" horiz-adv-x="548" d="M115 0v1782h317v-1782h-317zM-84 1970v280h277v-280h-277zM354 1970v280h277v-280h-277z" />
<glyph unicode="&#xd0;" horiz-adv-x="1150" d="M21 809v199h95v774h317v-774h141v-199h-141v-809h-317v809h-95zM483 0v225h14q142 0 192.5 44t50.5 168v925q0 105 -58 149.5t-188 44.5h-11v226h12q134 0 231 -23t160.5 -66t101 -114.5t53 -158t15.5 -205.5v-615q0 -103 -8.5 -179.5t-31 -147.5t-63 -119t-102.5 -84 t-151.5 -53t-207.5 -17h-9z" />
<glyph unicode="&#xd1;" horiz-adv-x="1183" d="M116 0v1783h229l43 -104v-1679h-272zM253 1920q0 44 3.5 78.5t15 73t31 63.5t54 42t81.5 17q63 0 157.5 -31t117.5 -31q25 0 33 12t9 39h147q-3 -274 -163 -274q-47 0 -142 37t-137 37q-23 0 -34.5 -10t-14 -20.5t-3.5 -32.5h-155zM438 949v609l316 -690v-637zM804 105 v1678h263v-1783h-221z" />
<glyph unicode="&#xd2;" d="M92 571v631q0 597 481 613v-247q-165 -18 -165 -288v-780q0 -269 165 -287v-246q-106 3 -189.5 36t-137.5 87t-89 130.5t-50 162.5t-15 188zM161 2242h304l273 -362h-211zM623 -33v246q166 18 166 287v780q0 270 -166 288v247q483 -16 483 -613v-624q0 -102 -14.5 -188.5 t-50 -164t-90 -132.5t-138 -88.5t-190.5 -37.5z" />
<glyph unicode="&#xd3;" d="M92 571v631q0 597 481 613v-247q-165 -18 -165 -288v-780q0 -269 165 -287v-246q-106 3 -189.5 36t-137.5 87t-89 130.5t-50 162.5t-15 188zM623 -33v246q166 18 166 287v780q0 270 -166 288v247q483 -16 483 -613v-624q0 -102 -14.5 -188.5t-50 -164t-90 -132.5 t-138 -88.5t-190.5 -37.5zM496 1880l273 362h304l-366 -362h-211z" />
<glyph unicode="&#xd4;" d="M92 571v631q0 597 481 613v-247q-165 -18 -165 -288v-780q0 -269 165 -287v-246q-106 3 -189.5 36t-137.5 87t-89 130.5t-50 162.5t-15 188zM152 1871l261 412h131v-204l-127 -208h-265zM594 2079v204h131q246 -391 261 -412h-265zM623 -33v246q166 18 166 287v780 q0 270 -166 288v247q483 -16 483 -613v-624q0 -102 -14.5 -188.5t-50 -164t-90 -132.5t-138 -88.5t-190.5 -37.5z" />
<glyph unicode="&#xd5;" d="M92 571v631q0 597 481 613v-247q-165 -18 -165 -288v-780q0 -269 165 -287v-246q-106 3 -189.5 36t-137.5 87t-89 130.5t-50 162.5t-15 188zM623 -33v246q166 18 166 287v780q0 270 -166 288v247q483 -16 483 -613v-624q0 -102 -14.5 -188.5t-50 -164t-90 -132.5 t-138 -88.5t-190.5 -37.5zM254 1920q0 44 3.5 78.5t15 73t31 63.5t54 42t81.5 17q63 0 157.5 -31t117.5 -31q25 0 33 12t9 39h147q-3 -274 -163 -274q-47 0 -142 37t-137 37q-23 0 -34.5 -10t-14 -20.5t-3.5 -32.5h-155z" />
<glyph unicode="&#xd6;" d="M92 571v631q0 597 481 613v-247q-165 -18 -165 -288v-780q0 -269 165 -287v-246q-106 3 -189.5 36t-137.5 87t-89 130.5t-50 162.5t-15 188zM623 -33v246q166 18 166 287v780q0 270 -166 288v247q483 -16 483 -613v-624q0 -102 -14.5 -188.5t-50 -164t-90 -132.5 t-138 -88.5t-190.5 -37.5zM239 1969v280h277v-280h-277zM677 1969v280h277v-280h-277z" />
<glyph unicode="&#xd7;" horiz-adv-x="794" d="M62 455l193 194l-193 193l133 134l194 -194l194 194l133 -134l-194 -193q124 -127 194 -194l-133 -133l-194 194l-194 -194z" />
<glyph unicode="&#xd8;" d="M92 571v631q0 613 506 613q92 0 169 -22l-71 -252q-40 28 -98 28q-190 0 -190 -289v-787q0 -173 68 -241l-142 -496l-89 20l74 260q-227 135 -227 535zM451 -17l68 239q34 -17 80 -17q190 0 190 288l-1 787q0 146 -51 220l147 523l89 -20l-76 -269q209 -143 209 -532 v-624q0 -104 -15.5 -192t-52.5 -167t-94 -133.5t-145 -86.5t-201 -32q-78 0 -147 16z" />
<glyph unicode="&#xd9;" horiz-adv-x="1225" d="M107 614v1168h317v-1167q0 -85 3.5 -141.5t13 -108t28 -81t48.5 -48.5t73 -23v-246q-86 2 -156 22t-120 52t-87 80t-59.5 100.5t-36.5 120t-19 131.5t-5 141zM129 2242h304l273 -362h-211zM640 -33v245q33 2 57.5 12t42 24.5t29 43t18.5 55t10 74t4 87.5t1 107v1167h316 v-1168q0 -78 -4.5 -142t-18 -131.5t-35.5 -120t-58.5 -100.5t-85.5 -80t-119 -51.5t-157 -21.5z" />
<glyph unicode="&#xda;" horiz-adv-x="1225" d="M107 614v1168h317v-1167q0 -85 3.5 -141.5t13 -108t28 -81t48.5 -48.5t73 -23v-246q-86 2 -156 22t-120 52t-87 80t-59.5 100.5t-36.5 120t-19 131.5t-5 141zM513 1880l273 362h304l-366 -362h-211zM640 -33v245q33 2 57.5 12t42 24.5t29 43t18.5 55t10 74t4 87.5t1 107 v1167h316v-1168q0 -78 -4.5 -142t-18 -131.5t-35.5 -120t-58.5 -100.5t-85.5 -80t-119 -51.5t-157 -21.5z" />
<glyph unicode="&#xdb;" horiz-adv-x="1225" d="M107 614v1168h317v-1167q0 -85 3.5 -141.5t13 -108t28 -81t48.5 -48.5t73 -23v-246q-86 2 -156 22t-120 52t-87 80t-59.5 100.5t-36.5 120t-19 131.5t-5 141zM169 1872l261 412h131v-204l-127 -208h-265zM611 2080v204h131q246 -391 261 -412h-265zM640 -33v245 q33 2 57.5 12t42 24.5t29 43t18.5 55t10 74t4 87.5t1 107v1167h316v-1168q0 -78 -4.5 -142t-18 -131.5t-35.5 -120t-58.5 -100.5t-85.5 -80t-119 -51.5t-157 -21.5z" />
<glyph unicode="&#xdc;" horiz-adv-x="1225" d="M107 614v1168h317v-1167q0 -85 3.5 -141.5t13 -108t28 -81t48.5 -48.5t73 -23v-246q-86 2 -156 22t-120 52t-87 80t-59.5 100.5t-36.5 120t-19 131.5t-5 141zM256 1970v280h277v-280h-277zM640 -33v245q33 2 57.5 12t42 24.5t29 43t18.5 55t10 74t4 87.5t1 107v1167h316 v-1168q0 -78 -4.5 -142t-18 -131.5t-35.5 -120t-58.5 -100.5t-85.5 -80t-119 -51.5t-157 -21.5zM694 1970v280h277v-280h-277z" />
<glyph unicode="&#xdd;" horiz-adv-x="1002" d="M2 1782h291l361 -1443v-339h-308v581zM398 1880l273 362h304l-366 -362h-211zM529 1052l125 730h346l-346 -1236z" />
<glyph unicode="&#xde;" horiz-adv-x="1028" d="M108 0v1782h317v-1782h-317zM475 528v226h25q48 0 80.5 12.5t52 33t29.5 59.5t13 80t3 107q0 55 -3 91.5t-13.5 72.5t-29 57t-50.5 33.5t-78 12.5h-29v228h65q439 0 439 -499q0 -271 -119.5 -391t-364.5 -123h-20z" />
<glyph unicode="&#xdf;" horiz-adv-x="1162" d="M107 0v1354q0 198 112.5 327t316.5 133v-219q-110 -21 -110 -238v-1357h-319zM506 826v209l234 -65q158 -45 257.5 -205.5t99.5 -352.5q0 -93 -25 -170.5t-77.5 -141t-144 -99t-215.5 -35.5l-109 1v220h83q69 0 115 35.5t64.5 89.5t18.5 125q0 140 -85 252.5t-216 136.5z M535 1078q58 26 105 83t72 125t25 132q0 75 -37.5 123.5t-113.5 53.5l-1 218q102 0 186 -33.5t137 -90t81.5 -128t28.5 -150.5q0 -118 -63.5 -225t-184.5 -171z" />
<glyph unicode="&#xe0;" horiz-adv-x="1100" d="M25 0l378 1782h242l-117 -647l-198 -1135h-305zM453 399l27 185h182l-86 530l121 668l378 -1782h-313l-77 399h-232zM112 2242h304l273 -362h-211z" />
<glyph unicode="&#xe1;" horiz-adv-x="1100" d="M25 0l378 1782h242l-117 -647l-198 -1135h-305zM447 1880l273 362h304l-366 -362h-211zM453 399l27 185h182l-86 530l121 668l378 -1782h-313l-77 399h-232z" />
<glyph unicode="&#xe2;" horiz-adv-x="1100" d="M25 0l378 1782h242l-117 -647l-198 -1135h-305zM129 1861l261 412h131v-204l-127 -208h-265zM453 399l27 185h182l-86 530l121 668l378 -1782h-313l-77 399h-232zM571 2069v204h131q246 -391 261 -412h-265z" />
<glyph unicode="&#xe3;" horiz-adv-x="1100" d="M25 0l378 1782h242l-117 -647l-198 -1135h-305zM205 1920q0 44 3.5 78.5t15 73t31 63.5t54 42t81.5 17q63 0 157.5 -31t117.5 -31q25 0 33 12t9 39h147q-3 -274 -163 -274q-47 0 -142 37t-137 37q-23 0 -34.5 -10t-14 -20.5t-3.5 -32.5h-155zM453 399l27 185h182l-86 530 l121 668l378 -1782h-313l-77 399h-232z" />
<glyph unicode="&#xe4;" horiz-adv-x="1100" d="M25 0l378 1782h242l-117 -647l-198 -1135h-305zM453 399l27 185h182l-86 530l121 668l378 -1782h-313l-77 399h-232zM190 1969v280h277v-280h-277zM628 1969v280h277v-280h-277z" />
<glyph unicode="&#xe5;" horiz-adv-x="1100" d="M25 0l378 1782h242l-117 -647l-198 -1135h-305zM453 399l27 185h182l-86 530l121 668l378 -1782h-313l-77 399h-232zM287 2129q0 98 60 162t159 72v-113q-34 -11 -51 -46t-17 -74t17 -74.5t51 -46.5v-113q-99 8 -159 72t-60 161zM556 1896v112q36 10 52.5 45t16.5 76 q0 39 -17 75.5t-52 46.5v112q99 -8 160.5 -72t61.5 -162q0 -99 -61 -162.5t-161 -70.5z" />
<glyph unicode="&#xe6;" horiz-adv-x="1516" d="M25 0l677 1782h258l-629 -1782h-306zM526 399l69 195h187v532l232 656h64v-1782h-296v399h-256zM1128 0v221h350v-221h-350zM1128 810v225h234v-225h-234zM1128 1561v221h350v-221h-350z" />
<glyph unicode="&#xe7;" horiz-adv-x="909" d="M92 578v624q0 597 478 613v-247q-162 -18 -162 -288v-779q0 -270 162 -288v-246q-478 16 -478 611zM334 -385h9q196 -1 196 47q0 9 -3.5 18t-11 17.5t-14.5 16t-19.5 15.5t-20.5 13t-23 12l-21 11q-6 3 -21 9.5t-17 7.5v93l147 -1q203 -100 203 -217q0 -181 -404 -181 v139zM620 -33v247q45 6 76 35.5t46 77.5t20.5 97t5.5 111v170h309v-137q-8 -584 -457 -601zM620 1567v248q124 -4 214 -49.5t142 -125t76.5 -180.5t24.5 -228v-136h-310v152q0 61 -5 108.5t-19.5 96t-45.5 78.5t-77 36z" />
<glyph unicode="&#xe8;" horiz-adv-x="871" d="M25 2256h304l273 -362h-211zM116 0v1782h316v-1782h-316zM482 0v221h351v-221h-351zM482 810v225h235v-225h-235zM482 1561v221h351v-221h-351z" />
<glyph unicode="&#xe9;" horiz-adv-x="871" d="M116 0v1782h316v-1782h-316zM360 1894l273 362h304l-366 -362h-211zM482 0v221h351v-221h-351zM482 810v225h235v-225h-235zM482 1561v221h351v-221h-351z" />
<glyph unicode="&#xea;" horiz-adv-x="871" d="M116 0v1782h316v-1782h-316zM482 0v221h351v-221h-351zM482 810v225h235v-225h-235zM482 1561v221h351v-221h-351zM42 1875l261 412h131v-204l-127 -208h-265zM484 2083v204h131q246 -391 261 -412h-265z" />
<glyph unicode="&#xeb;" horiz-adv-x="871" d="M103 1983v280h277v-280h-277zM116 0v1782h316v-1782h-316zM482 0v221h351v-221h-351zM482 810v225h235v-225h-235zM482 1561v221h351v-221h-351zM541 1983v280h277v-280h-277z" />
<glyph unicode="&#xec;" horiz-adv-x="548" d="M115 0v1782h317v-1782h-317zM-211 2242h304l273 -362h-211z" />
<glyph unicode="&#xed;" horiz-adv-x="548" d="M115 0v1782h317v-1782h-317zM173 1880l273 362h304l-366 -362h-211z" />
<glyph unicode="&#xee;" horiz-adv-x="548" d="M115 0v1782h317v-1782h-317zM-171 1872l261 412h131v-204l-127 -208h-265zM271 2080v204h131q246 -391 261 -412h-265z" />
<glyph unicode="&#xef;" horiz-adv-x="548" d="M-84 1970v280h277v-280h-277zM115 0v1782h317v-1782h-317zM354 1970v280h277v-280h-277z" />
<glyph unicode="&#xf0;" horiz-adv-x="1150" d="M21 809v199h95v774h317v-774h141v-199h-141v-809h-317v809h-95zM483 0v225h14q142 0 192.5 44t50.5 168v925q0 105 -58 149.5t-188 44.5h-11v226h12q134 0 231 -23t160.5 -66t101 -114.5t53 -158t15.5 -205.5v-615q0 -103 -8.5 -179.5t-31 -147.5t-63 -119t-102.5 -84 t-151.5 -53t-207.5 -17h-9z" />
<glyph unicode="&#xf1;" horiz-adv-x="1183" d="M116 0v1783h229l43 -104v-1679h-272zM253 1920q0 44 3.5 78.5t15 73t31 63.5t54 42t81.5 17q63 0 157.5 -31t117.5 -31q25 0 33 12t9 39h147q-3 -274 -163 -274q-47 0 -142 37t-137 37q-23 0 -34.5 -10t-14 -20.5t-3.5 -32.5h-155zM438 949v609l316 -690v-637zM804 105 v1678h263v-1783h-221z" />
<glyph unicode="&#xf2;" d="M92 571v631q0 597 481 613v-247q-165 -18 -165 -288v-780q0 -269 165 -287v-246q-106 3 -189.5 36t-137.5 87t-89 130.5t-50 162.5t-15 188zM623 -33v246q166 18 166 287v780q0 270 -166 288v247q483 -16 483 -613v-624q0 -102 -14.5 -188.5t-50 -164t-90 -132.5 t-138 -88.5t-190.5 -37.5zM161 2242h304l273 -362h-211z" />
<glyph unicode="&#xf3;" d="M92 571v631q0 597 481 613v-247q-165 -18 -165 -288v-780q0 -269 165 -287v-246q-106 3 -189.5 36t-137.5 87t-89 130.5t-50 162.5t-15 188zM496 1880l273 362h304l-366 -362h-211zM623 -33v246q166 18 166 287v780q0 270 -166 288v247q483 -16 483 -613v-624 q0 -102 -14.5 -188.5t-50 -164t-90 -132.5t-138 -88.5t-190.5 -37.5z" />
<glyph unicode="&#xf4;" d="M92 571v631q0 597 481 613v-247q-165 -18 -165 -288v-780q0 -269 165 -287v-246q-106 3 -189.5 36t-137.5 87t-89 130.5t-50 162.5t-15 188zM623 -33v246q166 18 166 287v780q0 270 -166 288v247q483 -16 483 -613v-624q0 -102 -14.5 -188.5t-50 -164t-90 -132.5 t-138 -88.5t-190.5 -37.5zM178 1861l261 412h131v-204l-127 -208h-265zM620 2069v204h131q246 -391 261 -412h-265z" />
<glyph unicode="&#xf5;" d="M92 571v631q0 597 481 613v-247q-165 -18 -165 -288v-780q0 -269 165 -287v-246q-106 3 -189.5 36t-137.5 87t-89 130.5t-50 162.5t-15 188zM623 -33v246q166 18 166 287v780q0 270 -166 288v247q483 -16 483 -613v-624q0 -102 -14.5 -188.5t-50 -164t-90 -132.5 t-138 -88.5t-190.5 -37.5zM254 1920q0 44 3.5 78.5t15 73t31 63.5t54 42t81.5 17q63 0 157.5 -31t117.5 -31q25 0 33 12t9 39h147q-3 -274 -163 -274q-47 0 -142 37t-137 37q-23 0 -34.5 -10t-14 -20.5t-3.5 -32.5h-155z" />
<glyph unicode="&#xf6;" d="M92 571v631q0 597 481 613v-247q-165 -18 -165 -288v-780q0 -269 165 -287v-246q-106 3 -189.5 36t-137.5 87t-89 130.5t-50 162.5t-15 188zM623 -33v246q166 18 166 287v780q0 270 -166 288v247q483 -16 483 -613v-624q0 -102 -14.5 -188.5t-50 -164t-90 -132.5 t-138 -88.5t-190.5 -37.5zM239 1969v280h277v-280h-277zM677 1969v280h277v-280h-277z" />
<glyph unicode="&#xf7;" horiz-adv-x="691" d="M12 581v199h652v-199h-652zM206 235v263h264v-263h-264zM206 888v262h264v-262h-264z" />
<glyph unicode="&#xf8;" d="M92 571v631q0 613 506 613q92 0 169 -22l-71 -252q-40 28 -98 28q-190 0 -190 -289v-787q0 -173 68 -241l-142 -496l-89 20l74 260q-227 135 -227 535zM451 -17l68 239q34 -17 80 -17q190 0 190 288l-1 787q0 146 -51 220l147 523l89 -20l-76 -269q209 -143 209 -532 v-624q0 -104 -15.5 -192t-52.5 -167t-94 -133.5t-145 -86.5t-201 -32q-78 0 -147 16z" />
<glyph unicode="&#xf9;" horiz-adv-x="1223" d="M106 614v1168h317v-1167q0 -85 3.5 -141.5t13 -108t28 -81t48.5 -48.5t73 -23v-246q-86 2 -156 22t-120 52t-87 80t-59.5 100.5t-36.5 120t-19 131.5t-5 141zM177 2242h304l273 -362h-211zM639 -33v245q33 2 57.5 12t42 24.5t29 43t18.5 55t10 74t4 87.5t1 107v1167h316 v-1168q0 -78 -4.5 -142t-18 -131.5t-35.5 -120t-58.5 -100.5t-85.5 -80t-119 -51.5t-157 -21.5z" />
<glyph unicode="&#xfa;" horiz-adv-x="1223" d="M106 614v1168h317v-1167q0 -85 3.5 -141.5t13 -108t28 -81t48.5 -48.5t73 -23v-246q-86 2 -156 22t-120 52t-87 80t-59.5 100.5t-36.5 120t-19 131.5t-5 141zM512 1880l273 362h304l-366 -362h-211zM639 -33v245q33 2 57.5 12t42 24.5t29 43t18.5 55t10 74t4 87.5t1 107 v1167h316v-1168q0 -78 -4.5 -142t-18 -131.5t-35.5 -120t-58.5 -100.5t-85.5 -80t-119 -51.5t-157 -21.5z" />
<glyph unicode="&#xfb;" horiz-adv-x="1223" d="M106 614v1168h317v-1167q0 -85 3.5 -141.5t13 -108t28 -81t48.5 -48.5t73 -23v-246q-86 2 -156 22t-120 52t-87 80t-59.5 100.5t-36.5 120t-19 131.5t-5 141zM639 -33v245q33 2 57.5 12t42 24.5t29 43t18.5 55t10 74t4 87.5t1 107v1167h316v-1168q0 -78 -4.5 -142 t-18 -131.5t-35.5 -120t-58.5 -100.5t-85.5 -80t-119 -51.5t-157 -21.5zM168 1871l261 412h131v-204l-127 -208h-265zM610 2079v204h131q246 -391 261 -412h-265z" />
<glyph unicode="&#xfc;" horiz-adv-x="1223" d="M106 614v1168h317v-1167q0 -85 3.5 -141.5t13 -108t28 -81t48.5 -48.5t73 -23v-246q-86 2 -156 22t-120 52t-87 80t-59.5 100.5t-36.5 120t-19 131.5t-5 141zM255 1969v280h277v-280h-277zM639 -33v245q33 2 57.5 12t42 24.5t29 43t18.5 55t10 74t4 87.5t1 107v1167h316 v-1168q0 -78 -4.5 -142t-18 -131.5t-35.5 -120t-58.5 -100.5t-85.5 -80t-119 -51.5t-157 -21.5zM693 1969v280h277v-280h-277z" />
<glyph unicode="&#xfd;" horiz-adv-x="1002" d="M2 1782h291l361 -1443v-339h-308v581zM529 1052l125 730h346l-346 -1236zM398 1880l273 362h304l-366 -362h-211z" />
<glyph unicode="&#xfe;" horiz-adv-x="1028" d="M108 0v1782h317v-1782h-317zM475 528v226h25q48 0 80.5 12.5t52 33t29.5 59.5t13 80t3 107q0 55 -3 91.5t-13.5 72.5t-29 57t-50.5 33.5t-78 12.5h-29v228h65q439 0 439 -499q0 -271 -119.5 -391t-364.5 -123h-20z" />
<glyph unicode="&#xff;" horiz-adv-x="1002" d="M2 1782h291l361 -1443v-339h-308v581zM141 1969v280h277v-280h-277zM529 1052l125 730h346l-346 -1236zM579 1969v280h277v-280h-277z" />
<glyph unicode="&#x152;" horiz-adv-x="1543" d="M91 584v605q0 102 15.5 187t52 161.5t93.5 129.5t145 84t201 31h140v-231h-140q-190 0 -190 -284v-761q0 -282 190 -282h140v-224h-140q-507 0 -507 584zM788 0v1782h317v-747h284v-225h-284v-810h-317zM1155 0v221h350v-221h-350zM1155 1561v221h350v-221h-350z" />
<glyph unicode="&#x153;" horiz-adv-x="1543" d="M91 584v605q0 102 15.5 187t52 161.5t93.5 129.5t145 84t201 31h140v-231h-140q-190 0 -190 -284v-761q0 -282 190 -282h140v-224h-140q-507 0 -507 584zM788 0v1782h317v-747h284v-225h-284v-810h-317zM1155 0v221h350v-221h-350zM1155 1561v221h350v-221h-350z" />
<glyph unicode="&#x178;" horiz-adv-x="1002" d="M2 1782h291l361 -1443v-339h-308v581zM529 1052l125 730h346l-346 -1236zM141 1969v280h277v-280h-277zM579 1969v280h277v-280h-277z" />
<glyph unicode="&#x2c6;" horiz-adv-x="805" d="M-15 1370l261 412h131v-204l-127 -208h-265zM427 1578v204h131q246 -391 261 -412h-265z" />
<glyph unicode="&#x2da;" horiz-adv-x="730" d="M114 1638q0 98 60 162t159 72v-113q-34 -11 -51 -46t-17 -74t17 -74.5t51 -46.5v-113q-99 8 -159 72t-60 161zM383 1405v112q36 10 52.5 45t16.5 76q0 39 -17 75.5t-52 46.5v112q99 -8 160.5 -72t61.5 -162q0 -99 -61 -162.5t-161 -70.5z" />
<glyph unicode="&#x2dc;" horiz-adv-x="867" d="M117 1418q0 44 3.5 78.5t15 73t31 63.5t54 42t81.5 17q63 0 157.5 -31t117.5 -31q25 0 33 12t9 39h147q-3 -274 -163 -274q-47 0 -142 37t-137 37q-23 0 -34.5 -10t-14 -20.5t-3.5 -32.5h-155z" />
<glyph unicode="&#x2000;" horiz-adv-x="1181" />
<glyph unicode="&#x2001;" horiz-adv-x="2363" />
<glyph unicode="&#x2002;" horiz-adv-x="1181" />
<glyph unicode="&#x2003;" horiz-adv-x="2363" />
<glyph unicode="&#x2004;" horiz-adv-x="787" />
<glyph unicode="&#x2005;" horiz-adv-x="590" />
<glyph unicode="&#x2006;" horiz-adv-x="393" />
<glyph unicode="&#x2007;" horiz-adv-x="393" />
<glyph unicode="&#x2008;" horiz-adv-x="295" />
<glyph unicode="&#x2009;" horiz-adv-x="472" />
<glyph unicode="&#x200a;" horiz-adv-x="131" />
<glyph unicode="&#x2010;" horiz-adv-x="452" d="M29 452v199h394v-199h-394z" />
<glyph unicode="&#x2011;" horiz-adv-x="452" d="M29 452v199h394v-199h-394z" />
<glyph unicode="&#x2012;" horiz-adv-x="452" d="M29 452v199h394v-199h-394z" />
<glyph unicode="&#x2013;" horiz-adv-x="587" d="M29 452v199h530v-199h-530z" />
<glyph unicode="&#x2014;" horiz-adv-x="909" d="M29 452v199h852v-199h-852z" />
<glyph unicode="&#x2018;" horiz-adv-x="527" d="M121 1465q0 60 4 105t16.5 93.5t34.5 79t61 50.5t92 21l71 -143q-53 -6 -92 -36.5t-40 -76.5h128v-270h-272q0 28 -1.5 87t-1.5 90z" />
<glyph unicode="&#x2019;" horiz-adv-x="524" d="M117 1426q54 5 92.5 35t40.5 77h-128v271h271q0 -27 1.5 -87t1.5 -91q0 -60 -4 -105t-16.5 -93t-34.5 -79t-61 -51t-92 -21z" />
<glyph unicode="&#x201a;" horiz-adv-x="423" d="M72 77h273q-21 -144 -66 -398h-142z" />
<glyph unicode="&#x201c;" horiz-adv-x="903" d="M124 1468q0 49 3 87.5t10 80t22 71.5t37 55t56.5 38.5t79.5 13.5l71 -143q-54 -6 -92 -36t-40 -77h128v-270h-272q0 28 -1.5 88.5t-1.5 91.5zM488 1465q0 49 3 88t10 81t22 72t37.5 55.5t57 39t79.5 13.5l70 -143q-54 -5 -92 -36t-40 -77h128v-270h-272q0 28 -1.5 87 t-1.5 90z" />
<glyph unicode="&#x201d;" horiz-adv-x="900" d="M120 1426q53 5 92 35.5t40 76.5h-128v271h272q0 -28 1.5 -88.5t1.5 -92.5q0 -59 -4 -104t-16.5 -92.5t-34.5 -78t-61 -50.5t-92 -21zM484 1426q54 5 92.5 35t40.5 77h-128v271h272q0 -27 1.5 -87t1.5 -91q0 -49 -3 -88t-10 -81t-22 -72t-37.5 -55.5t-57 -39t-79.5 -13.5z " />
<glyph unicode="&#x201e;" horiz-adv-x="754" d="M74 78h274q-3 -17 -33.5 -199t-33.5 -199h-141zM397 78h274q-16 -110 -67 -398h-140z" />
<glyph unicode="&#x2022;" horiz-adv-x="895" d="M155 721q0 148 85 230.5t198 82.5q121 0 212.5 -81.5t91.5 -215.5q0 -146 -85.5 -228t-200.5 -82q-28 0 -49 4q-107 18 -179.5 94t-72.5 196z" />
<glyph unicode="&#x2026;" horiz-adv-x="1482" d="M1091 0v286h293v-286h-293zM597 0v286h293v-286h-293zM103 0v286h293v-286h-293z" />
<glyph unicode="&#x202f;" horiz-adv-x="472" />
<glyph unicode="&#x2039;" horiz-adv-x="605" d="M79 576v128l434 499v-294l-260 -268l260 -270v-294z" />
<glyph unicode="&#x203a;" horiz-adv-x="591" d="M79 77v294l260 270l-260 268v294l434 -499v-128z" />
<glyph unicode="&#x205f;" horiz-adv-x="590" />
<glyph unicode="&#x20ac;" horiz-adv-x="1052" d="M15 554v173h80v128h-80v173h83v53q4 91 16.5 164.5t42 143.5t74.5 118t116.5 78.5t164.5 33.5l1 -228q-37 -3 -65 -16.5t-45.5 -38t-28.5 -50t-15.5 -63t-6 -66t-1.5 -69.5v-60h161v-173h-161v-128h161v-173h-159v-55q2 -45 5.5 -78t13.5 -73.5t26.5 -67t45.5 -47.5 t68 -26v-233q-93 4 -164.5 33t-117 76t-75.5 115t-43 141.5t-16 164.5v50h-81zM563 -27v233q155 18 155 341v31h248v-25q0 -93 -10 -170.5t-37.5 -154t-71.5 -129.5t-116.5 -87.5t-167.5 -38.5zM563 1390v228q393 -21 399 -540v-20h-251v28q0 49 -6 94t-21 92t-46 79t-75 39 z" />
<glyph unicode="&#x2122;" horiz-adv-x="2048" d="M142 1364v137h482v-137h-164v-678h-155v678h-163zM731 686v815h225l114 -472l119 472h222v-815h-145v593l-151 -593h-90l-151 590v-590h-143z" />
<glyph unicode="&#xe000;" horiz-adv-x="1780" d="M0 1780h1780v-1780h-1780v1780z" />
<glyph unicode="&#xfb01;" horiz-adv-x="1390" d="M957 0v1782h317v-1782h-317zM116 0v1782h316v-1782h-316zM482 810v225h235v-225h-235zM482 1561v221h351v-221h-351z" />
<glyph unicode="&#xfb02;" horiz-adv-x="1679" d="M958 0v1782h316v-1782h-316zM1324 0v221h336v-221h-336zM116 0v1782h316v-1782h-316zM482 810v225h235v-225h-235zM482 1561v221h351v-221h-351z" />
<glyph unicode="&#xfb03;" horiz-adv-x="2232" d="M1799 0v1782h317v-1782h-317zM958 0v1782h316v-1782h-316zM1324 810v225h235v-225h-235zM1324 1561v221h351v-221h-351zM116 0v1782h316v-1782h-316zM482 810v225h235v-225h-235zM482 1561v221h351v-221h-351z" />
<glyph unicode="&#xfb04;" horiz-adv-x="2521" d="M1800 0v1782h316v-1782h-316zM2166 0v221h336v-221h-336zM958 0v1782h316v-1782h-316zM1324 810v225h235v-225h-235zM1324 1561v221h351v-221h-351zM116 0v1782h316v-1782h-316zM482 810v225h235v-225h-235zM482 1561v221h351v-221h-351z" />
</font>
</defs>
</svg>
